  0
SECTION
  2
HEADER
  9
$ACADVER
  1
AC1015
  9
$ACADMAINTVER
 70
    20
  9
$DWGCODEPAGE
  3
ANSI_936
  9
$INSBASE
 10
0.0
 20
0.0
 30
0.0
  9
$EXTMIN
 10
3667.173742029893
 20
3930.529550619984
 30
-0.0000000000000053
  9
$EXTMAX
 10
4430.041594902252
 20
4361.424197309445
 30
0.0000000000000099
  9
$LIMMIN
 10
0.0
 20
0.0
  9
$LIMMAX
 10
420.0
 20
297.0
  9
$ORTHOMODE
 70
     1
  9
$REGENMODE
 70
     1
  9
$FILLMODE
 70
     1
  9
$QTEXTMODE
 70
     0
  9
$MIRRTEXT
 70
     1
  9
$LTSCALE
 40
25.4
  9
$ATTMODE
 70
     1
  9
$TEXTSIZE
 40
2.5
  9
$TRACEWID
 40
1.0
  9
$TEXTSTYLE
  7
STANDARD
  9
$CLAYER
  8
0
  9
$CELTYPE
  6
BYLAYER
  9
$CECOLOR
 62
   256
  9
$CELTSCALE
 40
1.0
  9
$DISPSILH
 70
     0
  9
$DIMSCALE
 40
1.0
  9
$DIMASZ
 40
2.5
  9
$DIMEXO
 40
0.625
  9
$DIMDLI
 40
3.75
  9
$DIMRND
 40
0.0
  9
$DIMDLE
 40
0.0
  9
$DIMEXE
 40
1.25
  9
$DIMTP
 40
0.0
  9
$DIMTM
 40
0.0
  9
$DIMTXT
 40
2.5
  9
$DIMCEN
 40
2.5
  9
$DIMTSZ
 40
0.0
  9
$DIMTOL
 70
     0
  9
$DIMLIM
 70
     0
  9
$DIMTIH
 70
     0
  9
$DIMTOH
 70
     0
  9
$DIMSE1
 70
     0
  9
$DIMSE2
 70
     0
  9
$DIMTAD
 70
     1
  9
$DIMZIN
 70
     8
  9
$DIMBLK
  1

  9
$DIMASO
 70
     1
  9
$DIMSHO
 70
     1
  9
$DIMPOST
  1

  9
$DIMAPOST
  1

  9
$DIMALT
 70
     0
  9
$DIMALTD
 70
     4
  9
$DIMALTF
 40
0.0394
  9
$DIMLFAC
 40
1.0
  9
$DIMTOFL
 70
     1
  9
$DIMTVP
 40
0.0
  9
$DIMTIX
 70
     0
  9
$DIMSOXD
 70
     0
  9
$DIMSAH
 70
     0
  9
$DIMBLK1
  1

  9
$DIMBLK2
  1

  9
$DIMSTYLE
  2
STANDARD
  9
$DIMCLRD
 70
     0
  9
$DIMCLRE
 70
     0
  9
$DIMCLRT
 70
     0
  9
$DIMTFAC
 40
1.0
  9
$DIMGAP
 40
0.625
  9
$DIMJUST
 70
     0
  9
$DIMSD1
 70
     0
  9
$DIMSD2
 70
     0
  9
$DIMTOLJ
 70
     1
  9
$DIMTZIN
 70
     0
  9
$DIMALTZ
 70
     0
  9
$DIMALTTZ
 70
     0
  9
$DIMUPT
 70
     0
  9
$DIMDEC
 70
     4
  9
$DIMTDEC
 70
     4
  9
$DIMALTU
 70
     8
  9
$DIMALTTD
 70
     4
  9
$DIMTXSTY
  7
STANDARD
  9
$DIMAUNIT
 70
     0
  9
$DIMADEC
 70
     0
  9
$DIMALTRND
 40
0.0
  9
$DIMAZIN
 70
     0
  9
$DIMDSEP
 70
    46
  9
$DIMATFIT
 70
     3
  9
$DIMFRAC
 70
     0
  9
$DIMLDRBLK
  1

  9
$DIMLUNIT
 70
     2
  9
$DIMLWD
 70
    -2
  9
$DIMLWE
 70
    -2
  9
$DIMTMOVE
 70
     0
  9
$LUNITS
 70
     2
  9
$LUPREC
 70
     4
  9
$SKETCHINC
 40
1.0
  9
$FILLETRAD
 40
10.0
  9
$AUNITS
 70
     0
  9
$AUPREC
 70
     0
  9
$MENU
  1
.
  9
$ELEVATION
 40
0.0
  9
$PELEVATION
 40
0.0
  9
$THICKNESS
 40
0.0
  9
$LIMCHECK
 70
     0
  9
$CHAMFERA
 40
10.0
  9
$CHAMFERB
 40
10.0
  9
$CHAMFERC
 40
20.0
  9
$CHAMFERD
 40
0.0
  9
$SKPOLY
 70
     0
  9
$TDCREATE
 40
2453155.539762732
  9
$TDUCREATE
 40
2453155.206429398
  9
$TDUPDATE
 40
2455166.346825081
  9
$TDUUPDATE
 40
2455166.013491748
  9
$TDINDWG
 40
0.0098527894
  9
$TDUSRTIMER
 40
0.0098526042
  9
$USRTIMER
 70
     1
  9
$ANGBASE
 50
0.0
  9
$ANGDIR
 70
     0
  9
$PDMODE
 70
     0
  9
$PDSIZE
 40
0.0
  9
$PLINEWID
 40
0.0
  9
$SPLFRAME
 70
     0
  9
$SPLINETYPE
 70
     6
  9
$SPLINESEGS
 70
     8
  9
$HANDSEED
  5
8DD
  9
$SURFTAB1
 70
     6
  9
$SURFTAB2
 70
     6
  9
$SURFTYPE
 70
     6
  9
$SURFU
 70
     6
  9
$SURFV
 70
     6
  9
$UCSBASE
  2

  9
$UCSNAME
  2

  9
$UCSORG
 10
0.0
 20
0.0
 30
0.0
  9
$UCSXDIR
 10
1.0
 20
0.0
 30
0.0
  9
$UCSYDIR
 10
0.0
 20
1.0
 30
0.0
  9
$UCSORTHOREF
  2

  9
$UCSORTHOVIEW
 70
     0
  9
$UCSORGTOP
 10
0.0
 20
0.0
 30
0.0
  9
$UCSORGBOTTOM
 10
0.0
 20
0.0
 30
0.0
  9
$UCSORGLEFT
 10
0.0
 20
0.0
 30
0.0
  9
$UCSORGRIGHT
 10
0.0
 20
0.0
 30
0.0
  9
$UCSORGFRONT
 10
0.0
 20
0.0
 30
0.0
  9
$UCSORGBACK
 10
0.0
 20
0.0
 30
0.0
  9
$PUCSBASE
  2

  9
$PUCSNAME
  2

  9
$PUCSORG
 10
0.0
 20
0.0
 30
0.0
  9
$PUCSXDIR
 10
1.0
 20
0.0
 30
0.0
  9
$PUCSYDIR
 10
0.0
 20
1.0
 30
0.0
  9
$PUCSORTHOREF
  2

  9
$PUCSORTHOVIEW
 70
     0
  9
$PUCSORGTOP
 10
0.0
 20
0.0
 30
0.0
  9
$PUCSORGBOTTOM
 10
0.0
 20
0.0
 30
0.0
  9
$PUCSORGLEFT
 10
0.0
 20
0.0
 30
0.0
  9
$PUCSORGRIGHT
 10
0.0
 20
0.0
 30
0.0
  9
$PUCSORGFRONT
 10
0.0
 20
0.0
 30
0.0
  9
$PUCSORGBACK
 10
0.0
 20
0.0
 30
0.0
  9
$USERI1
 70
     0
  9
$USERI2
 70
     0
  9
$USERI3
 70
     0
  9
$USERI4
 70
     0
  9
$USERI5
 70
     0
  9
$USERR1
 40
0.0
  9
$USERR2
 40
0.0
  9
$USERR3
 40
0.0
  9
$USERR4
 40
0.0
  9
$USERR5
 40
0.0
  9
$WORLDVIEW
 70
     1
  9
$SHADEDGE
 70
     3
  9
$SHADEDIF
 70
    70
  9
$TILEMODE
 70
     1
  9
$MAXACTVP
 70
    48
  9
$PINSBASE
 10
0.0
 20
0.0
 30
0.0
  9
$PLIMCHECK
 70
     0
  9
$PEXTMIN
 10
1.000000000000000E+20
 20
1.000000000000000E+20
 30
1.000000000000000E+20
  9
$PEXTMAX
 10
-1.000000000000000E+20
 20
-1.000000000000000E+20
 30
-1.000000000000000E+20
  9
$PLIMMIN
 10
0.0
 20
0.0
  9
$PLIMMAX
 10
420.0
 20
297.0
  9
$UNITMODE
 70
     0
  9
$VISRETAIN
 70
     1
  9
$PLINEGEN
 70
     0
  9
$PSLTSCALE
 70
     1
  9
$TREEDEPTH
 70
  3020
  9
$CMLSTYLE
  2
STANDARD
  9
$CMLJUST
 70
     0
  9
$CMLSCALE
 40
20.0
  9
$PROXYGRAPHICS
 70
     1
  9
$MEASUREMENT
 70
     1
  9
$CELWEIGHT
370
    -1
  9
$ENDCAPS
280
     0
  9
$JOINSTYLE
280
     0
  9
$LWDISPLAY
290
     0
  9
$INSUNITS
 70
     0
  9
$HYPERLINKBASE
  1

  9
$STYLESHEET
  1

  9
$XEDIT
290
     1
  9
$CEPSNTYPE
380
     0
  9
$PSTYLEMODE
290
     1
  9
$FINGERPRINTGUID
  2
{AEA4C562-6A69-4577-B3D9-11D4D737C7CC}
  9
$VERSIONGUID
  2
{29A65909-C66A-4633-BE1C-4AF752265EFF}
  9
$EXTNAMES
290
     1
  9
$PSVPSCALE
 40
0.0
  9
$OLESTARTUP
290
     0
  0
ENDSEC
  0
SECTION
  2
CLASSES
  0
CLASS
  1
ACDBDICTIONARYWDFLT
  2
AcDbDictionaryWithDefault
  3
ObjectDBX Classes
 90
        0
280
     0
281
     0
  0
CLASS
  1
DICTIONARYVAR
  2
AcDbDictionaryVar
  3
ObjectDBX Classes
 90
        0
280
     0
281
     0
  0
CLASS
  1
ACDBPLACEHOLDER
  2
AcDbPlaceHolder
  3
ObjectDBX Classes
 90
        0
280
     0
281
     0
  0
CLASS
  1
LAYOUT
  2
AcDbLayout
  3
ObjectDBX Classes
 90
        0
280
     0
281
     0
  0
CLASS
  1
DIMASSOC
  2
AcDbDimAssoc
  3
"AcDbDimAssoc|Product Desc:     AcDim ARX App For Dimension|Company:          Autodesk, Inc.|WEB Address:      www.autodesk.com"
 90
    32768
280
     0
281
     0
  0
ENDSEC
  0
SECTION
  2
TABLES
  0
TABLE
  2
VPORT
  5
8
330
0
100
AcDbSymbolTable
 70
     3
  0
VPORT
  5
8D4
330
8
100
AcDbSymbolTableRecord
100
AcDbViewportTableRecord
  2
*Active
 70
     0
 10
0.0
 20
0.0
 11
1.0
 21
1.0
 12
4048.607669981012
 22
4145.976873325961
 13
0.0
 23
0.0
 14
10.0
 24
10.0
 15
10.0
 25
10.0
 16
0.0
 26
0.0
 36
1.0
 17
0.0
 27
0.0
 37
0.0
 40
522.5646245550701
 41
2.138297872340425
 42
50.0
 43
0.0
 44
0.0
 50
0.0
 51
0.0
 71
     0
 72
   100
 73
     1
 74
     1
 75
     0
 76
     0
 77
     0
 78
     0
281
     0
 65
     1
110
0.0
120
0.0
130
0.0
111
1.0
121
0.0
131
0.0
112
0.0
122
1.0
132
0.0
 79
     0
146
0.0
  0
ENDTAB
  0
TABLE
  2
LTYPE
  5
5
330
0
100
AcDbSymbolTable
 70
     5
  0
LTYPE
  5
12
330
5
100
AcDbSymbolTableRecord
100
AcDbLinetypeTableRecord
  2
BYBLOCK
 70
     0
  3

 72
    65
 73
     0
 40
0.0
  0
LTYPE
  5
13
330
5
100
AcDbSymbolTableRecord
100
AcDbLinetypeTableRecord
  2
BYLAYER
 70
     0
  3

 72
    65
 73
     0
 40
0.0
  0
LTYPE
  5
14
330
5
100
AcDbSymbolTableRecord
100
AcDbLinetypeTableRecord
  2
CONTINUOUS
 70
     0
  3
Solid line
 72
    65
 73
     0
 40
0.0
  0
LTYPE
  5
80
330
5
100
AcDbSymbolTableRecord
100
AcDbLinetypeTableRecord
  2
CENTER2
 70
     0
  3
___ _ ___ _ ___ _ ___ _ ___ _ ___ _ ___ _ ___ _
 72
    65
 73
     4
 40
1.125
 49
0.75
 74
     0
 49
-0.125
 74
     0
 49
0.125
 74
     0
 49
-0.125
 74
     0
  0
LTYPE
  5
18C
330
5
100
AcDbSymbolTableRecord
100
AcDbLinetypeTableRecord
  2
DASHED2
 70
     0
  3
_ _ _ _ _ _ _ _ _ _ _ _ _ _ _ _ _ _ _ _ _ _ _ _
 72
    65
 73
     2
 40
0.375
 49
0.25
 74
     0
 49
-0.125
 74
     0
  0
LTYPE
  5
7A4
330
5
100
AcDbSymbolTableRecord
100
AcDbLinetypeTableRecord
  2
PHANTOM2
 70
     0
  3
___ _ _ ___ _ _ ___ _ _ ___ _ _ ___ _ _ ___ _ _
 72
    65
 73
     6
 40
1.25
 49
0.625
 74
     0
 49
-0.125
 74
     0
 49
0.125
 74
     0
 49
-0.125
 74
     0
 49
0.125
 74
     0
 49
-0.125
 74
     0
  0
LTYPE
  5
7A5
330
5
100
AcDbSymbolTableRecord
100
AcDbLinetypeTableRecord
  2
CENTER
 70
     0
  3
Center ____ _ ____ _ ____ _ ____ _ ____ _ ____
 72
    65
 73
     4
 40
2.0
 49
1.25
 74
     0
 49
-0.25
 74
     0
 49
0.25
 74
     0
 49
-0.25
 74
     0
  0
ENDTAB
  0
TABLE
  2
LAYER
  5
2
330
0
100
AcDbSymbolTable
 70
     6
  0
LAYER
  5
E
330
2
100
AcDbSymbolTableRecord
100
AcDbLayerTableRecord
  2
0
 70
     0
 62
     5
  6
CONTINUOUS
370
    -3
390
176
  0
LAYER
  5
81
330
2
100
AcDbSymbolTableRecord
100
AcDbLayerTableRecord
  2
CENTER
 70
     0
 62
     1
  6
CENTER2
370
    -3
390
176
  0
LAYER
  5
82
330
2
100
AcDbSymbolTableRecord
100
AcDbLayerTableRecord
  2
DIM
 70
     0
 62
     1
  6
CONTINUOUS
370
    -3
390
176
  0
LAYER
  5
83
330
2
100
AcDbSymbolTableRecord
100
AcDbLayerTableRecord
  2
DEFPOINTS
 70
     0
 62
     7
  6
CONTINUOUS
290
     0
370
    -3
390
176
  0
LAYER
  5
18D
330
2
100
AcDbSymbolTableRecord
100
AcDbLayerTableRecord
  2
DESHED
 70
     0
 62
   190
  6
DASHED2
370
    -3
390
176
  0
LAYER
  5
7A6
330
2
100
AcDbSymbolTableRecord
100
AcDbLayerTableRecord
  2
HATCH
 70
     0
 62
     3
  6
CONTINUOUS
370
    -3
390
176
  0
ENDTAB
  0
TABLE
  2
STYLE
  5
3
330
0
100
AcDbSymbolTable
 70
     2
  0
STYLE
  5
F
330
3
100
AcDbSymbolTableRecord
100
AcDbTextStyleTableRecord
  2
STANDARD
 70
     0
 40
0.0
 41
1.0
 50
0.0
 71
     0
 42
2.5
  3
txt
  4

  0
STYLE
  5
195
330
3
100
AcDbSymbolTableRecord
100
AcDbTextStyleTableRecord
  2

 70
     1
 40
0.0
 41
1.0
 50
0.0
 71
     0
 42
2.5
  3
ltypeshp.shx
  4

  0
ENDTAB
  0
TABLE
  2
VIEW
  5
6
330
0
100
AcDbSymbolTable
 70
     0
  0
ENDTAB
  0
TABLE
  2
UCS
  5
7
330
0
100
AcDbSymbolTable
 70
     0
  0
ENDTAB
  0
TABLE
  2
APPID
  5
9
330
0
100
AcDbSymbolTable
 70
     2
  0
APPID
  5
10
330
9
100
AcDbSymbolTableRecord
100
AcDbRegAppTableRecord
  2
ACAD
 70
     0
  0
APPID
  5
2BB
330
9
100
AcDbSymbolTableRecord
100
AcDbRegAppTableRecord
  2
DCO15
 70
     0
  0
ENDTAB
  0
TABLE
  2
DIMSTYLE
  5
A
330
0
100
AcDbSymbolTable
 70
     6
100
AcDbDimStyleTable
 71
     2
340
205
340
1D
  0
DIMSTYLE
105
1D
330
A
100
AcDbSymbolTableRecord
100
AcDbDimStyleTableRecord
  2
STANDARD
 70
     0
340
F
  0
DIMSTYLE
105
84
102
{ACAD_REACTORS
330
8D
330
8B
330
86
330
95
330
89
330
90
330
8F
330
9C
330
88
330
87
102
}
330
A
100
AcDbSymbolTableRecord
100
AcDbDimStyleTableRecord
  2
B
 70
     0
 40
7.62
 41
1.5
 42
0.3125
 43
0.7
 44
1.0
 73
     0
 74
     0
 77
     1
140
1.5
141
0.045
147
0.3
271
     1
340
F
  0
DIMSTYLE
105
204
330
A
100
AcDbSymbolTableRecord
100
AcDbDimStyleTableRecord
  2
b1
 70
     0
  3
"
  4
"
 40
10.0
 41
1.5
 42
0.3125
 43
0.7
 44
1.0
 47
1.0
 48
1.0
 77
     1
140
3.0
141
0.045
143
0.03937
144
0.03937
146
0.8
147
0.8
271
     3
272
     3
273
     5
277
     5
340
F
  0
DIMSTYLE
105
205
330
A
100
AcDbSymbolTableRecord
100
AcDbDimStyleTableRecord
  2
B4
 70
     0
 40
7.62
 41
2.5
 42
0.3125
 43
0.7
 44
1.0
 77
     1
140
3.299999999999999
141
0.045
147
0.8
271
     1
272
     1
289
     2
340
F
  0
DIMSTYLE
105
206
330
A
100
AcDbSymbolTableRecord
100
AcDbDimStyleTableRecord
  2
b44
 70
     0
  3
"
  4
"
 40
10.0
 41
2.1
 42
0.3125
 43
0.7
 44
1.0
 47
1.0
 48
1.0
 77
     1
140
3.0
141
0.045
143
0.03937
144
0.03937
146
0.8
147
0.8
271
     3
272
     3
273
     5
277
     5
340
F
  0
DIMSTYLE
105
54B
330
A
100
AcDbSymbolTableRecord
100
AcDbDimStyleTableRecord
  2
bb
 70
     0
  4
"
 40
7.62
 41
1.5
 42
0.3125
 43
0.7
 44
1.0
 47
2.0
 48
2.0
 71
     1
 73
     0
 74
     0
 77
     1
140
1.5
141
0.045
143
0.03937
146
0.7
147
0.3
170
     1
271
     1
272
     1
273
     5
284
     8
286
     8
289
     2
340
F
  0
ENDTAB
  0
TABLE
  2
BLOCK_RECORD
  5
1
330
0
100
AcDbSymbolTable
 70
    11
  0
BLOCK_RECORD
  5
18
330
1
100
AcDbSymbolTableRecord
100
AcDbBlockTableRecord
  2
*MODEL_SPACE
340
17B
  0
BLOCK_RECORD
  5
15
330
1
100
AcDbSymbolTableRecord
100
AcDbBlockTableRecord
  2
*PAPER_SPACE
340
17C
  0
BLOCK_RECORD
  5
20
330
1
100
AcDbSymbolTableRecord
100
AcDbBlockTableRecord
  2
*D0
340
0
  0
BLOCK_RECORD
  5
2A
330
1
100
AcDbSymbolTableRecord
100
AcDbBlockTableRecord
  2
*D1
340
0
  0
BLOCK_RECORD
  5
34
330
1
100
AcDbSymbolTableRecord
100
AcDbBlockTableRecord
  2
*D2
340
0
  0
BLOCK_RECORD
  5
3C
330
1
100
AcDbSymbolTableRecord
100
AcDbBlockTableRecord
  2
*D3
340
0
  0
BLOCK_RECORD
  5
48
330
1
100
AcDbSymbolTableRecord
100
AcDbBlockTableRecord
  2
*D4
340
0
  0
BLOCK_RECORD
  5
54
330
1
100
AcDbSymbolTableRecord
100
AcDbBlockTableRecord
  2
*D5
340
0
  0
BLOCK_RECORD
  5
5C
330
1
100
AcDbSymbolTableRecord
100
AcDbBlockTableRecord
  2
*D6
340
0
  0
BLOCK_RECORD
  5
64
330
1
100
AcDbSymbolTableRecord
100
AcDbBlockTableRecord
  2
*D7
340
0
  0
BLOCK_RECORD
  5
6C
330
1
100
AcDbSymbolTableRecord
100
AcDbBlockTableRecord
  2
*D8
340
0
  0
BLOCK_RECORD
  5
74
330
1
100
AcDbSymbolTableRecord
100
AcDbBlockTableRecord
  2
*D9
340
0
  0
BLOCK_RECORD
  5
85
330
1
100
AcDbSymbolTableRecord
100
AcDbBlockTableRecord
  2
A$C656C1E65
340
0
  0
ENDTAB
  0
ENDSEC
  0
SECTION
  2
BLOCKS
  0
BLOCK
  5
19
330
18
100
AcDbEntity
  8
0
100
AcDbBlockBegin
  2
*MODEL_SPACE
 70
     0
 10
0.0
 20
0.0
 30
0.0
  3
*MODEL_SPACE
  1

  0
ENDBLK
  5
1A
330
18
100
AcDbEntity
  8
0
100
AcDbBlockEnd
  0
BLOCK
  5
16
330
15
100
AcDbEntity
 67
     1
  8
0
100
AcDbBlockBegin
  2
*PAPER_SPACE
 70
     0
 10
0.0
 20
0.0
 30
0.0
  3
*PAPER_SPACE
  1

  0
ENDBLK
  5
17
330
15
100
AcDbEntity
 67
     1
  8
0
100
AcDbBlockEnd
  0
BLOCK
  5
28
330
20
100
AcDbEntity
  8
0
100
AcDbBlockBegin
  2
*D0
 70
     1
 10
0.0
 20
0.0
 30
0.0
  3
*D0
  1

  0
LINE
  5
21
330
20
100
AcDbEntity
  8
0
  6
ByBlock
 62
     0
100
AcDbLine
 10
14341.544259
 20
-6766.314710999999
 30
0.0
 11
14255.088024
 21
-6768.621370999999
 31
0.0
  0
MTEXT
  5
22
330
20
100
AcDbEntity
  8
0
  6
ByBlock
 62
     0
100
AcDbMText
 10
14309.528684
 20
-6759.165042000001
 30
0.0
 40
11.43
 41
0.0
 71
     5
 72
     1
  1
\A1;R1201.7
 11
0.9996442654170834
 21
0.02667100708146
 31
0.0
 73
     1
 44
1.0
1001
ACAD
1000
MTEXTBEGIN
1070
    73
1070
     1
1070
    44
1040
1.0
1070
    74
1070
     0
1000
MTEXTEND
  0
SOLID
  5
23
330
20
100
AcDbEntity
  8
0
  6
ByBlock
 62
     0
100
AcDbTrace
 10
14266.463151
 20
-6766.412204000001
 30
0.0
 11
14266.564766
 21
-6770.220848000001
 31
0.0
 12
14255.088024
 22
-6768.621370999999
 32
0.0
 13
14255.088024
 23
-6768.621370999999
 33
0.0
  0
LINE
  5
24
330
20
100
AcDbEntity
  8
0
  6
ByBlock
 62
     0
100
AcDbLine
 10
13053.472597
 20
-6800.671423000001
 30
0.0
 11
13054.158397
 21
-6800.671423000001
 31
0.0
  0
LINE
  5
25
330
20
100
AcDbEntity
  8
0
  6
ByBlock
 62
     0
100
AcDbLine
 10
13053.815497
 20
-6801.014323000001
 30
0.0
 11
13053.815497
 21
-6800.328523000001
 31
0.0
  0
POINT
  5
26
330
20
100
AcDbEntity
  8
DEFPOINTS
  6
ByBlock
 62
     0
100
AcDbPoint
 10
14255.088024
 20
-6768.621370999999
 30
0.0
  0
POINT
  5
27
330
20
100
AcDbEntity
  8
DEFPOINTS
  6
ByBlock
 62
     0
100
AcDbPoint
 10
13053.815497
 20
-6800.671423000001
 30
0.0
  0
ENDBLK
  5
29
330
20
100
AcDbEntity
  8
0
100
AcDbBlockEnd
  0
BLOCK
  5
32
330
2A
100
AcDbEntity
  8
0
100
AcDbBlockBegin
  2
*D1
 70
     1
 10
0.0
 20
0.0
 30
0.0
  3
*D1
  1

  0
LINE
  5
2B
330
2A
100
AcDbEntity
  8
0
  6
ByBlock
 62
     0
100
AcDbLine
 10
13395.876672
 20
-6775.386468
 30
0.0
 11
13482.34701
 21
-6777.084063
 31
0.0
  0
MTEXT
  5
2C
330
2A
100
AcDbEntity
  8
0
  6
ByBlock
 62
     0
100
AcDbMText
 10
13427.841089
 20
-6768.011454999999
 30
0.0
 40
11.43
 41
0.0
 71
     5
 72
     1
  1
\A1;R1201.7
 11
0.9998073521157145
 21
-0.0196280069126614
 31
0.0
 73
     1
 44
1.0
1001
ACAD
1000
MTEXTBEGIN
1070
    73
1070
     1
1070
    44
1040
1.0
1070
    74
1070
     0
1000
MTEXTEND
  0
SOLID
  5
2D
330
2A
100
AcDbEntity
  8
0
  6
ByBlock
 62
     0
100
AcDbTrace
 10
13470.956604
 20
-6774.955078000001
 30
0.0
 11
13470.88182
 21
-6778.764343999999
 31
0.0
 12
13482.34701
 22
-6777.084063
 32
0.0
 13
13482.34701
 23
-6777.084063
 33
0.0
  0
LINE
  5
2E
330
2A
100
AcDbEntity
  8
0
  6
ByBlock
 62
     0
100
AcDbLine
 10
14683.472597
 20
-6800.671423000001
 30
0.0
 11
14684.158397
 21
-6800.671423000001
 31
0.0
  0
LINE
  5
2F
330
2A
100
AcDbEntity
  8
0
  6
ByBlock
 62
     0
100
AcDbLine
 10
14683.815497
 20
-6801.014323000001
 30
0.0
 11
14683.815497
 21
-6800.328523000001
 31
0.0
  0
POINT
  5
30
330
2A
100
AcDbEntity
  8
DEFPOINTS
  6
ByBlock
 62
     0
100
AcDbPoint
 10
13482.34701
 20
-6777.084063
 30
0.0
  0
POINT
  5
31
330
2A
100
AcDbEntity
  8
DEFPOINTS
  6
ByBlock
 62
     0
100
AcDbPoint
 10
14683.815497
 20
-6800.671423000001
 30
0.0
  0
ENDBLK
  5
33
330
2A
100
AcDbEntity
  8
0
100
AcDbBlockEnd
  0
BLOCK
  5
3A
330
34
100
AcDbEntity
  8
0
100
AcDbBlockBegin
  2
*D2
 70
     1
 10
0.0
 20
0.0
 30
0.0
  3
*D2
  1

  0
LINE
  5
35
330
34
100
AcDbEntity
  8
0
  6
ByBlock
 62
     0
100
AcDbLine
 10
13677.052022
 20
-8359.574506000001
 30
0.0
 11
13678.646219
 21
-8460.301734999999
 31
0.0
  0
MTEXT
  5
36
330
34
100
AcDbEntity
  8
0
  6
ByBlock
 62
     0
100
AcDbMText
 10
13685.585612
 20
-8393.162169
 30
0.0
 40
11.43
 41
0.0
 71
     5
 72
     1
  1
\A1;R1992.0
 11
0.0158249964690481
 21
-0.9998747769029654
 31
0.0
 73
     1
 44
1.0
1001
ACAD
1000
MTEXTBEGIN
1070
    73
1070
     1
1070
    44
1040
1.0
1070
    74
1070
     0
1000
MTEXTEND
  0
SOLID
  5
37
330
34
100
AcDbEntity
  8
0
  6
ByBlock
 62
     0
100
AcDbTrace
 10
13680.370102
 20
-8448.843020000001
 30
0.0
 11
13676.560579
 21
-8448.903312
 31
0.0
 12
13678.646219
 22
-8460.301734999999
 32
0.0
 13
13678.646219
 23
-8460.301734999999
 33
0.0
  0
POINT
  5
38
330
34
100
AcDbEntity
  8
DEFPOINTS
  6
ByBlock
 62
     0
100
AcDbPoint
 10
13678.646219
 20
-8460.301734999999
 30
-240.0
  0
POINT
  5
39
330
34
100
AcDbEntity
  8
DEFPOINTS
  6
ByBlock
 62
     0
100
AcDbPoint
 10
13647.123023
 20
-6468.551176
 30
-240.0
  0
ENDBLK
  5
3B
330
34
100
AcDbEntity
  8
0
100
AcDbBlockEnd
  0
BLOCK
  5
46
330
3C
100
AcDbEntity
  8
0
100
AcDbBlockBegin
  2
*D3
 70
     1
 10
0.0
 20
0.0
 30
0.0
  3
*D3
  1

  0
LINE
  5
3D
330
3C
100
AcDbEntity
  8
0
  6
ByBlock
 62
     0
100
AcDbLine
 10
13668.815497
 20
-7011.227542
 30
0.0
 11
13668.815497
 21
-7154.564311
 31
0.0
  0
LINE
  5
3E
330
3C
100
AcDbEntity
  8
0
  6
ByBlock
 62
     0
100
AcDbLine
 10
14067.315497
 20
-7011.227542
 30
0.0
 11
14067.315497
 21
-7154.564311
 31
0.0
  0
LINE
  5
3F
330
3C
100
AcDbEntity
  8
0
  6
ByBlock
 62
     0
100
AcDbLine
 10
13680.245497
 20
-7146.944311
 30
0.0
 11
14055.885497
 21
-7146.944311
 31
0.0
  0
SOLID
  5
40
330
3C
100
AcDbEntity
  8
0
  6
ByBlock
 62
     0
100
AcDbTrace
 10
13680.245497
 20
-7145.039310999999
 30
0.0
 11
13680.245497
 21
-7148.849311000001
 31
0.0
 12
13668.815497
 22
-7146.944311
 32
0.0
 13
13668.815497
 23
-7146.944311
 33
0.0
  0
SOLID
  5
41
330
3C
100
AcDbEntity
  8
0
  6
ByBlock
 62
     0
100
AcDbTrace
 10
14055.885497
 20
-7145.039310999999
 30
0.0
 11
14055.885497
 21
-7148.849311000001
 31
0.0
 12
14067.315497
 22
-7146.944311
 32
0.0
 13
14067.315497
 23
-7146.944311
 33
0.0
  0
MTEXT
  5
42
330
3C
100
AcDbEntity
  8
0
  6
ByBlock
 62
     0
100
AcDbMText
 10
13868.065497
 20
-7138.943311
 30
0.0
 40
11.43
 41
0.0
 71
     5
 72
     1
  1
\A1;398.5
 73
     1
 44
1.0
1001
ACAD
1000
MTEXTBEGIN
1070
    73
1070
     1
1070
    44
1040
1.0
1070
    74
1070
     0
1000
MTEXTEND
  0
POINT
  5
43
330
3C
100
AcDbEntity
  8
DEFPOINTS
  6
ByBlock
 62
     0
100
AcDbPoint
 10
13668.815497
 20
-7008.846292
 30
0.0
  0
POINT
  5
44
330
3C
100
AcDbEntity
  8
DEFPOINTS
  6
ByBlock
 62
     0
100
AcDbPoint
 10
14067.315497
 20
-7008.846292
 30
0.0
  0
POINT
  5
45
330
3C
100
AcDbEntity
  8
DEFPOINTS
  6
ByBlock
 62
     0
100
AcDbPoint
 10
14067.315497
 20
-7146.944311
 30
0.0
  0
ENDBLK
  5
47
330
3C
100
AcDbEntity
  8
0
100
AcDbBlockEnd
  0
BLOCK
  5
52
330
48
100
AcDbEntity
  8
0
100
AcDbBlockBegin
  2
*D4
 70
     1
 10
0.0
 20
0.0
 30
0.0
  3
*D4
  1

  0
LINE
  5
49
330
48
100
AcDbEntity
  8
0
  6
ByBlock
 62
     0
100
AcDbLine
 10
14013.139376
 20
-7008.846292
 30
0.0
 11
14397.146276
 21
-7008.846292
 31
0.0
  0
LINE
  5
4A
330
48
100
AcDbEntity
  8
0
  6
ByBlock
 62
     0
100
AcDbLine
 10
14013.139376
 20
-6598.846292000001
 30
0.0
 11
14397.146276
 21
-6598.846292000001
 31
0.0
  0
LINE
  5
4B
330
48
100
AcDbEntity
  8
0
  6
ByBlock
 62
     0
100
AcDbLine
 10
14389.526276
 20
-6997.416292
 30
0.0
 11
14389.526276
 21
-6610.276292
 31
0.0
  0
SOLID
  5
4C
330
48
100
AcDbEntity
  8
0
  6
ByBlock
 62
     0
100
AcDbTrace
 10
14387.621276
 20
-6997.416292
 30
0.0
 11
14391.431276
 21
-6997.416292
 31
0.0
 12
14389.526276
 22
-7008.846292
 32
0.0
 13
14389.526276
 23
-7008.846292
 33
0.0
  0
SOLID
  5
4D
330
48
100
AcDbEntity
  8
0
  6
ByBlock
 62
     0
100
AcDbTrace
 10
14387.621276
 20
-6610.276292
 30
0.0
 11
14391.431276
 21
-6610.276292
 31
0.0
 12
14389.526276
 22
-6598.846292000001
 32
0.0
 13
14389.526276
 23
-6598.846292000001
 33
0.0
  0
MTEXT
  5
4E
330
48
100
AcDbEntity
  8
0
  6
ByBlock
 62
     0
100
AcDbMText
 10
14381.525276
 20
-6803.846292
 30
0.0
 40
11.43
 41
0.0
 71
     5
 72
     1
  1
\A1;410.0
 11
0.0
 21
1.0
 31
0.0
 73
     1
 44
1.0
1001
ACAD
1000
MTEXTBEGIN
1070
    73
1070
     1
1070
    44
1040
1.0
1070
    74
1070
     0
1000
MTEXTEND
  0
POINT
  5
4F
330
48
100
AcDbEntity
  8
DEFPOINTS
  6
ByBlock
 62
     0
100
AcDbPoint
 10
14010.758126
 20
-7008.846292
 30
0.0
  0
POINT
  5
50
330
48
100
AcDbEntity
  8
DEFPOINTS
  6
ByBlock
 62
     0
100
AcDbPoint
 10
14010.758126
 20
-6598.846292000001
 30
0.0
  0
POINT
  5
51
330
48
100
AcDbEntity
  8
DEFPOINTS
  6
ByBlock
 62
     0
100
AcDbPoint
 10
14389.526276
 20
-6598.846292000001
 30
0.0
  0
ENDBLK
  5
53
330
48
100
AcDbEntity
  8
0
100
AcDbBlockEnd
  0
BLOCK
  5
5A
330
54
100
AcDbEntity
  8
0
100
AcDbBlockBegin
  2
*D5
 70
     1
 10
0.0
 20
0.0
 30
0.0
  3
*D5
  1

  0
LINE
  5
55
330
54
100
AcDbEntity
  8
0
  6
ByBlock
 62
     0
100
AcDbLine
 10
13568.490578
 20
-6688.648233000001
 30
0.0
 11
13508.594126
 21
-6643.415852
 31
0.0
  0
MTEXT
  5
56
330
54
100
AcDbEntity
  8
0
  6
ByBlock
 62
     0
100
AcDbMText
 10
13552.485365
 20
-6666.535321000001
 30
0.0
 40
11.43
 41
0.0
 71
     5
 72
     1
  1
\A1;R100.0
 11
0.7980131126120274
 21
-0.602640085041863
 31
0.0
 73
     1
 44
1.0
1001
ACAD
1000
MTEXTBEGIN
1070
    73
1070
     1
1070
    44
1040
1.0
1070
    74
1070
     0
1000
MTEXTEND
  0
SOLID
  5
57
330
54
100
AcDbEntity
  8
0
  6
ByBlock
 62
     0
100
AcDbTrace
 10
13518.863443
 20
-6648.783817
 30
0.0
 11
13516.567383
 21
-6651.824246
 31
0.0
 12
13508.594126
 22
-6643.415852
 32
0.0
 13
13508.594126
 23
-6643.415852
 33
0.0
  0
POINT
  5
58
330
54
100
AcDbEntity
  8
DEFPOINTS
  6
ByBlock
 62
     0
100
AcDbPoint
 10
13508.594126
 20
-6643.415852
 30
0.0
  0
POINT
  5
59
330
54
100
AcDbEntity
  8
DEFPOINTS
  6
ByBlock
 62
     0
100
AcDbPoint
 10
13588.395413
 20
-6703.679893
 30
0.0
  0
ENDBLK
  5
5B
330
54
100
AcDbEntity
  8
0
100
AcDbBlockEnd
  0
BLOCK
  5
62
330
5C
100
AcDbEntity
  8
0
100
AcDbBlockBegin
  2
*D6
 70
     1
 10
0.0
 20
0.0
 30
0.0
  3
*D6
  1

  0
LINE
  5
5D
330
5C
100
AcDbEntity
  8
0
  6
ByBlock
 62
     0
100
AcDbLine
 10
13567.56031
 20
-6916.906498
 30
0.0
 11
13503.100062
 21
-6955.356852
 31
0.0
  0
MTEXT
  5
5E
330
5C
100
AcDbEntity
  8
0
  6
ByBlock
 62
     0
100
AcDbMText
 10
13541.047699
 20
-6923.404893999999
 30
0.0
 40
11.43
 41
0.0
 71
     5
 72
     1
  1
\A1;R100.0
 11
0.8588172202810628
 21
0.5122821313970537
 31
0.0
 73
     1
 44
1.0
1001
ACAD
1000
MTEXTBEGIN
1070
    73
1070
     1
1070
    44
1040
1.0
1070
    74
1070
     0
1000
MTEXTEND
  0
SOLID
  5
5F
330
5C
100
AcDbEntity
  8
0
  6
ByBlock
 62
     0
100
AcDbTrace
 10
13511.940446
 20
-6947.865421
 30
0.0
 11
13513.892241
 21
-6951.137515
 31
0.0
 12
13503.100062
 22
-6955.356852
 32
0.0
 13
13503.100062
 23
-6955.356852
 33
0.0
  0
POINT
  5
60
330
5C
100
AcDbEntity
  8
DEFPOINTS
  6
ByBlock
 62
     0
100
AcDbPoint
 10
13503.100062
 20
-6955.356852
 30
0.0
  0
POINT
  5
61
330
5C
100
AcDbEntity
  8
DEFPOINTS
  6
ByBlock
 62
     0
100
AcDbPoint
 10
13588.981789
 20
-6904.128647
 30
0.0
  0
ENDBLK
  5
63
330
5C
100
AcDbEntity
  8
0
100
AcDbBlockEnd
  0
BLOCK
  5
6A
330
64
100
AcDbEntity
  8
0
100
AcDbBlockBegin
  2
*D7
 70
     1
 10
0.0
 20
0.0
 30
0.0
  3
*D7
  1

  0
LINE
  5
65
330
64
100
AcDbEntity
  8
0
  6
ByBlock
 62
     0
100
AcDbLine
 10
14155.379353
 20
-6910.746087000001
 30
0.0
 11
14221.683408
 21
-6972.025601
 31
0.0
  0
MTEXT
  5
66
330
64
100
AcDbEntity
  8
0
  6
ByBlock
 62
     0
100
AcDbMText
 10
14179.976244
 20
-6922.584188
 30
0.0
 40
11.43
 41
0.0
 71
     5
 72
     1
  1
\A1;R100.0
 11
0.7343850684762704
 21
-0.6787330632871101
 31
0.0
 73
     1
 44
1.0
1001
ACAD
1000
MTEXTBEGIN
1070
    73
1070
     1
1070
    44
1040
1.0
1070
    74
1070
     0
1000
MTEXTEND
  0
SOLID
  5
67
330
64
100
AcDbEntity
  8
0
  6
ByBlock
 62
     0
100
AcDbTrace
 10
14214.582374
 20
-6962.868677999999
 30
0.0
 11
14211.996401
 21
-6965.666684999999
 31
0.0
 12
14221.683408
 22
-6972.025601
 32
0.0
 13
14221.683408
 23
-6972.025601
 33
0.0
  0
POINT
  5
68
330
64
100
AcDbEntity
  8
DEFPOINTS
  6
ByBlock
 62
     0
100
AcDbPoint
 10
14221.683408
 20
-6972.025601
 30
0.0
  0
POINT
  5
69
330
64
100
AcDbEntity
  8
DEFPOINTS
  6
ByBlock
 62
     0
100
AcDbPoint
 10
14148.244905
 20
-6904.15229
 30
0.0
  0
ENDBLK
  5
6B
330
64
100
AcDbEntity
  8
0
100
AcDbBlockEnd
  0
BLOCK
  5
72
330
6C
100
AcDbEntity
  8
0
100
AcDbBlockBegin
  2
*D8
 70
     1
 10
0.0
 20
0.0
 30
0.0
  3
*D8
  1

  0
LINE
  5
6D
330
6C
100
AcDbEntity
  8
0
  6
ByBlock
 62
     0
100
AcDbLine
 10
14147.071113
 20
-6705.400953999999
 30
0.0
 11
14218.907586
 21
-6632.269191999999
 31
0.0
  0
MTEXT
  5
6E
330
6C
100
AcDbEntity
  8
0
  6
ByBlock
 62
     0
100
AcDbMText
 10
14159.652036
 20
-6681.175593999999
 30
0.0
 40
11.43
 41
0.0
 71
     5
 72
     1
  1
\A1;R100.0
 11
0.7007610588860054
 21
0.7133960599477436
 31
0.0
 73
     1
 44
1.0
1001
ACAD
1000
MTEXTBEGIN
1070
    73
1070
     1
1070
    44
1040
1.0
1070
    74
1070
     0
1000
MTEXTEND
  0
SOLID
  5
6F
330
6C
100
AcDbEntity
  8
0
  6
ByBlock
 62
     0
100
AcDbTrace
 10
14209.53887
 20
-6639.088361999999
 30
0.0
 11
14212.25691
 21
-6641.758260999999
 31
0.0
 12
14218.907586
 22
-6632.269191999999
 32
0.0
 13
14218.907586
 23
-6632.269191999999
 33
0.0
  0
POINT
  5
70
330
6C
100
AcDbEntity
  8
DEFPOINTS
  6
ByBlock
 62
     0
100
AcDbPoint
 10
14218.907586
 20
-6632.269191999999
 30
0.0
  0
POINT
  5
71
330
6C
100
AcDbEntity
  8
DEFPOINTS
  6
ByBlock
 62
     0
100
AcDbPoint
 10
14148.831504
 20
-6703.608821
 30
0.0
  0
ENDBLK
  5
73
330
6C
100
AcDbEntity
  8
0
100
AcDbBlockEnd
  0
BLOCK
  5
7E
330
74
100
AcDbEntity
  8
0
100
AcDbBlockBegin
  2
*D9
 70
     1
 10
0.0
 20
0.0
 30
0.0
  3
*D9
  1

  0
LINE
  5
75
330
74
100
AcDbEntity
  8
0
  6
ByBlock
 62
     0
100
AcDbLine
 10
13484.120708
 20
-6806.591445000001
 30
0.0
 11
13484.120708
 21
-7187.83882
 31
0.0
  0
LINE
  5
76
330
74
100
AcDbEntity
  8
0
  6
ByBlock
 62
     0
100
AcDbLine
 10
14253.110425
 20
-6806.567684
 30
0.0
 11
14253.110425
 21
-7187.83882
 31
0.0
  0
LINE
  5
77
330
74
100
AcDbEntity
  8
0
  6
ByBlock
 62
     0
100
AcDbLine
 10
13495.550708
 20
-7180.21882
 30
0.0
 11
14241.680425
 21
-7180.21882
 31
0.0
  0
SOLID
  5
78
330
74
100
AcDbEntity
  8
0
  6
ByBlock
 62
     0
100
AcDbTrace
 10
13495.550708
 20
-7178.313820000001
 30
0.0
 11
13495.550708
 21
-7182.123820000001
 31
0.0
 12
13484.120708
 22
-7180.21882
 32
0.0
 13
13484.120708
 23
-7180.21882
 33
0.0
  0
SOLID
  5
79
330
74
100
AcDbEntity
  8
0
  6
ByBlock
 62
     0
100
AcDbTrace
 10
14241.680425
 20
-7178.313820000001
 30
0.0
 11
14241.680425
 21
-7182.123820000001
 31
0.0
 12
14253.110425
 22
-7180.21882
 32
0.0
 13
14253.110425
 23
-7180.21882
 33
0.0
  0
MTEXT
  5
7A
330
74
100
AcDbEntity
  8
0
  6
ByBlock
 62
     0
100
AcDbMText
 10
13868.615566
 20
-7172.21782
 30
0.0
 40
11.43
 41
0.0
 71
     5
 72
     1
  1
\A1;769.0
 73
     1
 44
1.0
1001
ACAD
1000
MTEXTBEGIN
1070
    73
1070
     1
1070
    44
1040
1.0
1070
    74
1070
     0
1000
MTEXTEND
  0
POINT
  5
7B
330
74
100
AcDbEntity
  8
DEFPOINTS
  6
ByBlock
 62
     0
100
AcDbPoint
 10
13484.120708
 20
-6804.210195
 30
0.0
  0
POINT
  5
7C
330
74
100
AcDbEntity
  8
DEFPOINTS
  6
ByBlock
 62
     0
100
AcDbPoint
 10
14253.110425
 20
-6804.186434
 30
0.0
  0
POINT
  5
7D
330
74
100
AcDbEntity
  8
DEFPOINTS
  6
ByBlock
 62
     0
100
AcDbPoint
 10
14253.110425
 20
-7180.21882
 30
0.0
  0
ENDBLK
  5
7F
330
74
100
AcDbEntity
  8
0
100
AcDbBlockEnd
  0
BLOCK
  5
9F
330
85
100
AcDbEntity
  8
0
100
AcDbBlockBegin
  2
A$C656C1E65
 70
     0
 10
0.0
 20
0.0
 30
0.0
  3
A$C656C1E65
  1

  0
DIMENSION
  5
86
330
85
100
AcDbEntity
  8
DIM
100
AcDbDimension
  2
*D2
 10
595.150415
 20
1991.750582
 30
-240.0
 11
625.6130049999999
 21
67.01297499999999
 31
0.0
 12
-13051.972608
 22
8460.301757999999
 32
0.0
 70
   132
 71
     5
 42
-1.0
  3
B
100
AcDbRadialDimension
 15
626.673611
 25
0.000023
 35
-240.0
 40
0.0
1001
ACAD
1000
DSTYLE
1002
{
1070
   288
1070
     1
1070
   287
1070
     3
1002
}
  0
DIMENSION
  5
87
330
85
100
AcDbEntity
  8
DIM
100
AcDbDimension
  2
*D9
 10
1201.137817
 20
1280.082938
 30
0.0
 11
816.642958
 21
1288.083938
 31
0.0
 12
-13051.972608
 22
8460.301757999999
 32
0.0
 71
     5
 42
-1.0
  3
B
100
AcDbAlignedDimension
 13
432.148099
 23
1656.091563
 33
0.0
 14
1201.137817
 24
1656.115324
 34
0.0
100
AcDbRotatedDimension
1001
ACAD
1000
DSTYLE
1002
{
1070
   287
1070
     3
1002
}
  0
DIMENSION
  5
88
330
85
100
AcDbEntity
  8
DIM
100
AcDbDimension
  2
*D8
 10
1096.858896
 20
1756.692937
 30
0.0
 11
1113.387311
 21
1773.519377
 31
0.0
 12
-13051.972608
 22
8460.301757999999
 32
0.0
 70
   132
 71
     5
 42
-1.0
  3
B
100
AcDbRadialDimension
 15
1166.934978
 25
1828.032566
 35
0.0
 40
0.0
1001
ACAD
1000
DSTYLE
1002
{
1070
   288
1070
     1
1070
   287
1070
     3
1002
}
  0
DIMENSION
  5
89
330
85
100
AcDbEntity
  8
DIM
100
AcDbDimension
  2
*D4
 10
1337.553668
 20
1861.455466
 30
0.0
 11
1329.552668
 21
1656.455466
 31
0.0
 12
-13051.972608
 22
8460.301757999999
 32
0.0
 71
     5
 42
-1.0
  3
B
100
AcDbAlignedDimension
 13
958.785517
 23
1451.455466
 33
0.0
 14
958.785517
 24
1861.455466
 34
0.0
 50
90.0
100
AcDbRotatedDimension
1001
ACAD
1000
DSTYLE
1002
{
1070
   287
1070
     3
1002
}
  0
LINE
  5
8A
330
85
100
AcDbEntity
  8
CENTER
100
AcDbLine
 10
1279.165219
 20
1656.091563
 30
0.0
 11
383.128884
 21
1656.091563
 31
0.0
  0
DIMENSION
  5
8B
330
85
100
AcDbEntity
  8
DIM
100
AcDbDimension
  2
*D1
 10
1633.342957
 20
1659.606933
 30
0.0
 11
377.211503
 21
1684.267442
 31
0.0
 12
-13050.47254
 22
8460.278356000001
 32
0.0
 70
   132
 71
     5
 42
-1.0
  3
B
100
AcDbRadialDimension
 15
431.87447
 25
1683.194293
 35
0.0
 40
0.0
1001
ACAD
1000
DSTYLE
1002
{
1070
   288
1070
     1
1070
   287
1070
     3
1002
}
  0
ARC
  5
8C
330
85
100
AcDbEntity
  8
0
100
AcDbCircle
 10
1015.342889
 20
2251.455466
 30
0.0
 40
800.0
100
AcDbArc
 50
270.0
 51
276.639009
  0
DIMENSION
  5
8D
330
85
100
AcDbEntity
  8
DIM
100
AcDbDimension
  2
*D0
 10
0.342889
 20
1659.630335
 30
0.0
 11
1256.269467
 21
1693.138562
 31
0.0
 12
-13053.472608
 22
8460.301757999999
 32
0.0
 70
   132
 71
     5
 42
-1.0
  3
B
100
AcDbRadialDimension
 15
1201.615416
 25
1691.680387
 35
0.0
 40
0.0
1001
ACAD
1000
DSTYLE
1002
{
1070
   288
1070
     1
1070
   287
1070
     3
1002
}
  0
ARC
  5
8E
330
85
100
AcDbEntity
  8
0
100
AcDbCircle
 10
1015.342889
 20
1061.455466
 30
0.0
 40
800.0
100
AcDbArc
 50
83.31265100000001
 51
90.0
  0
DIMENSION
  5
8F
330
85
100
AcDbEntity
  8
DIM
100
AcDbDimension
  2
*D6
 10
537.0091799999999
 20
1556.173112
 30
0.0
 11
493.173859
 21
1530.025467
 31
0.0
 12
-13051.972608
 22
8460.301757999999
 32
0.0
 70
   132
 71
     5
 42
-1.0
  3
B
100
AcDbRadialDimension
 15
451.127454
 25
1504.944906
 35
0.0
 40
0.0
1001
ACAD
1000
DSTYLE
1002
{
1070
   288
1070
     1
1070
   287
1070
     3
1002
}
  0
DIMENSION
  5
90
330
85
100
AcDbEntity
  8
DIM
100
AcDbDimension
  2
*D5
 10
536.422804
 20
1756.621866
 30
0.0
 11
495.6910299999999
 21
1787.381536
 31
0.0
 12
-13051.972608
 22
8460.301757999999
 32
0.0
 70
   132
 71
     5
 42
-1.0
  3
B
100
AcDbRadialDimension
 15
456.6215169999999
 25
1816.885906
 35
0.0
 40
0.0
1001
ACAD
1000
DSTYLE
1002
{
1070
   288
1070
     1
1070
   287
1070
     3
1002
}
  0
ARC
  5
91
330
85
100
AcDbEntity
  8
0
100
AcDbCircle
 10
537.0091799999999
 20
1556.173112
 30
0.0
 40
100.0
100
AcDbArc
 50
185.387186
 51
263.3119120000001
  0
ARC
  5
92
330
85
100
AcDbEntity
  8
0
100
AcDbCircle
 10
536.422804
 20
1756.621866
 30
0.0
 40
100.0
100
AcDbArc
 50
96.70306
 51
174.94803
  0
ARC
  5
93
330
85
100
AcDbEntity
  8
0
100
AcDbCircle
 10
1633.842957
 20
1659.606933
 30
0.0
 40
1201.7
100
AcDbArc
 50
174.94803
 51
185.387186
  0
LINE
  5
94
330
85
100
AcDbEntity
  8
CENTER
100
AcDbLine
 10
816.8428889999999
 20
1938.975354
 30
0.0
 11
816.8428889999999
 21
1347.654955
 31
0.0
  0
DIMENSION
  5
95
330
85
100
AcDbEntity
  8
DIM
100
AcDbDimension
  2
*D3
 10
1015.342889
 20
1313.357448
 30
0.0
 11
816.092889
 21
1321.358448
 31
0.0
 12
-13051.972608
 22
8460.301757999999
 32
0.0
 71
     5
 42
-1.0
  3
B
100
AcDbAlignedDimension
 13
616.842889
 23
1451.455466
 33
0.0
 14
1015.342889
 24
1451.455466
 34
0.0
100
AcDbRotatedDimension
1001
ACAD
1000
DSTYLE
1002
{
1070
   287
1070
     3
1002
}
  0
LINE
  5
96
330
85
100
AcDbEntity
  8
0
100
AcDbLine
 10
616.842889
 20
1451.455466
 30
0.0
 11
1015.342889
 21
1451.455466
 31
0.0
  0
ARC
  5
97
330
85
100
AcDbEntity
  8
0
100
AcDbCircle
 10
617.7570209999999
 20
2244.782231
 30
0.0
 40
793.327291
100
AcDbArc
 50
263.3119120000001
 51
269.933979
  0
MTEXT
  5
98
330
85
100
AcDbEntity
  8
DIM
 62
     4
100
AcDbMText
 10
885.0721289999999
 20
1611.242917
 30
0.0
 40
50.0
 41
156.6151
 71
     1
 72
     5
  1
\f华文新魏|b0|i0|c134|p2;\C3;502
 73
     1
 44
1.0
1001
ACAD
1000
MTEXTBEGIN
1070
    73
1070
     1
1070
    44
1040
1.0
1070
    74
1070
     0
1000
MTEXTEND
  0
LINE
  5
99
330
85
100
AcDbEntity
  8
0
100
AcDbLine
 10
1015.342889
 20
1861.455466
 30
0.0
 11
616.842889
 21
1861.455466
 31
0.0
  0
ARC
  5
9A
330
85
100
AcDbEntity
  8
0
100
AcDbCircle
 10
619.0106
 20
1053.909345
 30
0.0
 40
807.5490310000001
100
AcDbArc
 50
90.1538
 51
96.70306
  0
ARC
  5
9B
330
85
100
AcDbEntity
  8
0
100
AcDbCircle
 10
-0.5570430000000001
 20
1659.630335
 30
0.0
 40
1201.7
100
AcDbArc
 50
354.610357
 51
5.054458999999999
  0
DIMENSION
  5
9C
330
85
100
AcDbEntity
  8
DIM
100
AcDbDimension
  2
*D7
 10
1096.272297
 20
1556.149468
 30
0.0
 11
1122.573092
 21
1531.841755
 31
0.0
 12
-13051.972608
 22
8460.301757999999
 32
0.0
 70
   132
 71
     5
 42
-1.0
  3
B
100
AcDbRadialDimension
 15
1169.7108
 25
1488.276157
 35
0.0
 40
0.0
1001
ACAD
1000
DSTYLE
1002
{
1070
   288
1070
     1
1070
   287
1070
     3
1002
}
  0
ARC
  5
9D
330
85
100
AcDbEntity
  8
0
100
AcDbCircle
 10
1096.272297
 20
1556.149468
 30
0.0
 40
100.0
100
AcDbArc
 50
276.639009
 51
354.610357
  0
ARC
  5
9E
330
85
100
AcDbEntity
  8
0
100
AcDbCircle
 10
1096.858896
 20
1756.692937
 30
0.0
 40
100.0
100
AcDbArc
 50
5.054458999999999
 51
83.31265100000001
  0
ENDBLK
  5
A0
330
85
100
AcDbEntity
  8
0
100
AcDbBlockEnd
  0
ENDSEC
  0
SECTION
  2
ENTITIES
  0
LINE
  5
562
330
18
100
AcDbEntity
  8
0
 48
3.0
100
AcDbLine
 10
4427.59831588214
 20
3930.998168381636
 30
0.0
 11
3669.598315882141
 21
3930.998168381637
 31
0.0
  0
LINE
  5
563
330
18
100
AcDbEntity
  8
0
 48
3.0
100
AcDbLine
 10
3669.598315882141
 20
4360.998168381636
 30
0.0
 11
4427.59831588214
 21
4360.998168381635
 31
0.0
  0
LINE
  5
569
330
18
100
AcDbEntity
  8
0
 48
3.0
100
AcDbLine
 10
3667.59831588214
 20
3932.998168381637
 30
0.0
 11
3667.59831588214
 21
4358.998168381636
 31
0.0
  0
ARC
  5
56B
330
18
100
AcDbEntity
  8
0
 48
3.0
100
AcDbCircle
 10
3669.598315882141
 20
3932.998168381637
 30
0.0
 40
2.0
100
AcDbArc
 50
180.0
 51
270.0
  0
ARC
  5
56C
330
18
100
AcDbEntity
  8
0
 48
3.0
100
AcDbCircle
 10
3669.598315882141
 20
4358.998168381636
 30
0.0
 40
2.0
100
AcDbArc
 50
90.0
 51
180.0
  0
LINE
  5
56E
330
18
100
AcDbEntity
  8
0
 48
3.0
100
AcDbLine
 10
4429.59831588214
 20
4358.998168381634
 30
0.0
 11
4429.59831588214
 21
3932.998168381635
 31
0.0
  0
ARC
  5
571
330
18
100
AcDbEntity
  8
0
 48
3.0
100
AcDbCircle
 10
4427.59831588214
 20
3932.998168381635
 30
0.0
 40
2.0
100
AcDbArc
 50
270.0
 51
0.0
  0
ARC
  5
572
330
18
100
AcDbEntity
  8
0
 48
3.0
100
AcDbCircle
 10
4427.59831588214
 20
4358.998168381634
 30
0.0
 40
2.0
100
AcDbArc
 50
0.0
 51
90.0
  0
MTEXT
  5
6D5
330
18
100
AcDbEntity
  8
0
100
AcDbMText
 10
4124.109696978926
 20
4021.920718739175
 30
0.0
 40
6.0
 41
315.6503843244575
 71
     1
 72
     5
  1
{\fArial|b0|i0|c0|p34;Please check actual template against physical sink unit for most accurate cut!}
 73
     1
 44
1.0
1001
ACAD
1000
MTEXTBEGIN
1070
    73
1070
     1
1070
    44
1040
1.0
1070
    74
1070
     0
1000
MTEXTEND
  0
HATCH
  5
6D6
330
18
100
AcDbEntity
  8
0
  6
ByBlock
 62
     1
100
AcDbHatch
 10
0.0
 20
0.0
 30
0.0
210
0.0
220
0.0
230
1.0
  2
ANSI31
 70
     0
 71
     1
 91
        1
 92
        5
 93
        9
 72
     4
 94
        3
 73
     0
 74
     0
 95
       10
 96
        6
 40
168.1890314628042
 40
168.1890314628042
 40
168.1890314628042
 40
168.1890314628042
 40
240.3970488653276
 40
404.4385438063731
 40
531.2097876496541
 40
531.2097876496541
 40
531.2097876496541
 40
531.2097876496541
 10
4185.590450392795
 20
4224.978176093782
 10
4186.550234123274
 20
4224.001406326486
 10
4188.908870577512
 20
4220.423760129644
 10
4186.916877091453
 20
4212.182367694096
 10
4189.459752208724
 20
4207.076768268304
 10
4190.964310903965
 20
4204.994348081175
 72
     1
 10
4190.964310903964
 20
4204.994348081175
 11
4233.560638043928
 21
4204.994348081175
 72
     1
 10
4233.560638043928
 20
4204.994348081175
 11
4233.560638043928
 21
4213.249807346741
 72
     1
 10
4233.560638043928
 20
4213.249807346741
 11
4240.160638043929
 21
4213.249807346741
 72
     1
 10
4240.160638043929
 20
4213.249807346741
 11
4240.160638043928
 21
4204.994348081174
 72
     1
 10
4240.160638043928
 20
4204.994348081174
 11
4275.438014315333
 21
4204.994348081175
 72
     1
 10
4275.438014315333
 20
4204.994348081175
 11
4275.438014315333
 21
4221.978176093782
 72
     2
 10
4272.438014315333
 20
4221.978176093782
 40
2.999999999999999
 50
0.0
 51
90.0
 73
     1
 72
     1
 10
4272.438014315333
 20
4224.978176093782
 11
4185.590450392796
 21
4224.978176093783
 97
        9
330
71E
330
71D
330
722
330
71C
330
76C
330
6D8
330
6D7
330
720
330
71F
 75
     0
 76
     1
 52
0.0
 41
0.6000000000000001
 77
     0
 78
     1
 53
45.0
 43
3849.650537975957
 44
4184.357849673112
 45
-1.347038418160372
 46
1.347038418160373
 79
     0
 47
2.847268091439218
 98
        1
 10
4207.687485854892
 20
4216.866407238652
  0
LINE
  5
6D7
102
{ACAD_REACTORS
330
6D6
102
}
330
18
100
AcDbEntity
  8
0
  6
ByBlock
100
AcDbLine
 10
4240.160638043929
 20
4204.994348081175
 30
0.0
 11
4240.160638043929
 21
4213.249807346741
 31
0.0
  0
LINE
  5
6D8
102
{ACAD_REACTORS
330
6D6
102
}
330
18
100
AcDbEntity
  8
0
  6
ByBlock
100
AcDbLine
 10
4233.560638043928
 20
4213.249807346741
 30
0.0
 11
4240.160638043929
 21
4213.249807346741
 31
0.0
  0
HATCH
  5
6D9
330
18
100
AcDbEntity
  8
DESHED
  6
ByBlock
100
AcDbHatch
 10
0.0
 20
0.0
 30
0.0
210
0.0
220
0.0
230
1.0
  2
ANSI31
 70
     0
 71
     0
 91
        2
 92
        7
 72
     0
 73
     1
 93
       12
 10
4235.509294349706
 20
4211.331402332373
 10
4235.060638043928
 20
4211.651049921885
 10
4235.490474533576
 20
4211.989499797183
 10
4235.060638043928
 20
4212.327950254557
 10
4235.498753348408
 20
4212.649807346742
 10
4234.160638043928
 20
4212.649807346742
 10
4234.160638043928
 20
4209.992704683631
 10
4235.44105865985
 20
4209.992704683631
 10
4235.565754894255
 20
4210.071614842187
 10
4235.060638043928
 20
4210.391262431699
 10
4235.546935078121
 20
4210.635698549761
 10
4235.060638043928
 20
4211.049360478587
 97
        0
 92
        7
 72
     0
 73
     1
 93
       13
 10
4239.560638043928
 20
4212.649807346742
 10
4238.222522739445
 20
4212.649807346742
 10
4238.660638043928
 20
4212.327950254557
 10
4238.23080155428
 20
4211.989499797183
 10
4238.629236247866
 20
4211.660446845084
 10
4238.660638043928
 20
4211.651049921885
 10
4238.211981738147
 20
4211.331402332373
 10
4238.660638043928
 20
4211.049360478588
 10
4238.174341009731
 20
4210.635698549761
 10
4238.660638043928
 20
4210.391262431699
 10
4238.155521193598
 20
4210.071614842187
 10
4238.280217428006
 20
4209.992704683631
 10
4239.560638043928
 20
4209.992704683631
 97
        0
 75
     0
 76
     1
 52
270.0
 41
0.06
 77
     0
 78
     1
 53
315.0
 43
3849.650537975957
 44
4184.357849673112
 45
0.1347038418160373
 46
0.1347038418160372
 79
     0
 47
0.4906110457808098
 98
        2
 10
4234.766635757472
 20
4211.11916093257
 10
4239.156768885633
 20
4210.795357840317
  0
HATCH
  5
6DA
330
18
100
AcDbEntity
  8
DESHED
  6
ByBlock
100
AcDbHatch
 10
0.0
 20
0.0
 30
0.0
210
0.0
220
0.0
230
1.0
  2
ANSI31
 70
     0
 71
     0
 91
        2
 92
        7
 72
     0
 73
     1
 93
        9
 10
4240.160638043928
 20
4213.249807346741
 10
4238.088348162217
 20
4213.249807346741
 10
4238.088348162217
 20
4212.649807346742
 10
4239.560638043928
 20
4212.649807346742
 10
4239.560638043928
 20
4204.394348081176
 10
4239.584375635996
 20
4204.394348081176
 10
4240.760638043927
 20
4204.394348081176
 10
4240.760638043927
 20
4204.994348081175
 10
4240.160638043928
 20
4204.994348081175
 97
        0
 92
        7
 72
     0
 73
     1
 93
        8
 10
4235.620558730485
 20
4213.249807346741
 10
4233.560638043928
 20
4213.249807346741
 10
4233.560638043928
 20
4204.994348081175
 10
4232.960638043929
 20
4204.994348081175
 10
4232.960638043929
 20
4204.394348081176
 10
4234.160638043928
 20
4204.394348081176
 10
4234.160638043928
 20
4212.649807346742
 10
4235.620558730485
 20
4212.649807346742
 97
        0
 75
     0
 76
     1
 52
0.0
 41
0.12
 77
     0
 78
     1
 53
45.0
 43
3849.650537975957
 44
4184.357849673112
 45
-0.2694076836320746
 46
0.2694076836320747
 79
     0
 47
0.9928036230062964
 98
        2
 10
4239.309561150128
 20
4212.949416331713
 10
4234.003070284699
 20
4212.830279935944
  0
LINE
  5
6DB
330
18
100
AcDbEntity
  8
DESHED
  6
ByBlock
 62
     1
100
AcDbLine
 10
4235.060638043928
 20
4205.318612131853
 30
0.0
 11
4235.632628327548
 21
4204.725515787524
 31
0.0
  0
LINE
  5
6DC
330
18
100
AcDbEntity
  8
DESHED
  6
ByBlock
 62
     1
100
AcDbLine
 10
4235.632628327548
 20
4204.725515787524
 30
0.0
 11
4235.060638043928
 21
4204.21237625419
 31
0.0
  0
LINE
  5
6DD
330
18
100
AcDbEntity
  8
DESHED
  6
ByBlock
 62
     1
100
AcDbLine
 10
4235.060638043928
 20
4204.21237625419
 30
0.0
 11
4235.632628327548
 21
4203.66183981385
 31
0.0
  0
LINE
  5
6DE
330
18
100
AcDbEntity
  8
DESHED
  6
ByBlock
 62
     1
100
AcDbLine
 10
4235.632628327548
 20
4203.66183981385
 30
0.0
 11
4235.060638043928
 21
4203.014385401256
 31
0.0
  0
LINE
  5
6DF
330
18
100
AcDbEntity
  8
DESHED
  6
ByBlock
 62
     1
100
AcDbLine
 10
4235.060638043928
 20
4203.014385401256
 30
0.0
 11
4235.632628327548
 21
4202.413177407193
 31
0.0
  0
LINE
  5
6E0
330
18
100
AcDbEntity
  8
DESHED
  6
ByBlock
 62
     1
100
AcDbLine
 10
4235.632628327548
 20
4202.413177407193
 30
0.0
 11
4235.060638043928
 21
4201.881339040926
 31
0.0
  0
LINE
  5
6E1
330
18
100
AcDbEntity
  8
DESHED
  6
ByBlock
 62
     1
100
AcDbLine
 10
4235.060638043928
 20
4201.881339040926
 30
0.0
 11
4235.632628327548
 21
4201.34950143352
 31
0.0
  0
LINE
  5
6E2
330
18
100
AcDbEntity
  8
DESHED
  6
ByBlock
 62
     1
100
AcDbLine
 10
4235.632628327548
 20
4201.34950143352
 30
0.0
 11
4235.060638043928
 21
4200.93327987244
 31
0.0
  0
LINE
  5
6E3
330
18
100
AcDbEntity
  8
DESHED
  6
ByBlock
 62
     1
100
AcDbLine
 10
4238.088647760306
 20
4201.34950143352
 30
0.0
 11
4238.660638043929
 21
4200.93327987244
 31
0.0
  0
LINE
  5
6E4
330
18
100
AcDbEntity
  8
DESHED
  6
ByBlock
 62
     1
100
AcDbLine
 10
4238.660638043929
 20
4201.881339040926
 30
0.0
 11
4238.088647760306
 21
4201.34950143352
 31
0.0
  0
LINE
  5
6E5
330
18
100
AcDbEntity
  8
DESHED
  6
ByBlock
 62
     1
100
AcDbLine
 10
4238.088647760306
 20
4202.413177407193
 30
0.0
 11
4238.660638043929
 21
4201.881339040926
 31
0.0
  0
LINE
  5
6E6
330
18
100
AcDbEntity
  8
DESHED
  6
ByBlock
 62
     1
100
AcDbLine
 10
4238.660638043929
 20
4203.014385401256
 30
0.0
 11
4238.088647760306
 21
4202.413177407193
 31
0.0
  0
LINE
  5
6E7
330
18
100
AcDbEntity
  8
DESHED
  6
ByBlock
 62
     1
100
AcDbLine
 10
4238.088647760306
 20
4203.66183981385
 30
0.0
 11
4238.660638043929
 21
4203.014385401256
 31
0.0
  0
LINE
  5
6E8
330
18
100
AcDbEntity
  8
DESHED
  6
ByBlock
 62
     1
100
AcDbLine
 10
4238.660638043929
 20
4204.21237625419
 30
0.0
 11
4238.088647760306
 21
4203.66183981385
 31
0.0
  0
LINE
  5
6E9
330
18
100
AcDbEntity
  8
DESHED
  6
ByBlock
 62
     1
100
AcDbLine
 10
4235.490474533576
 20
4211.989499797183
 30
0.0
 11
4235.060638043928
 21
4211.651049921885
 31
0.0
  0
LINE
  5
6EA
330
18
100
AcDbEntity
  8
DESHED
  6
ByBlock
 62
     1
100
AcDbLine
 10
4238.230801554281
 20
4211.989499797183
 30
0.0
 11
4238.629236247867
 21
4211.660446845084
 31
0.0
  0
LINE
  5
6EB
330
18
100
AcDbEntity
  8
DESHED
  6
ByBlock
 62
     1
100
AcDbLine
 10
4235.620558730485
 20
4212.651133652896
 30
0.0
 11
4235.620558730485
 21
4213.249807346741
 31
0.0
  0
LINE
  5
6EC
330
18
100
AcDbEntity
  8
DESHED
  6
ByBlock
 62
     1
100
AcDbLine
 10
4238.088348162217
 20
4212.660220560255
 30
0.0
 11
4238.088348162217
 21
4213.249807346741
 31
0.0
  0
LINE
  5
6ED
330
18
100
AcDbEntity
  8
DESHED
  6
ByBlock
 62
     1
100
AcDbLine
 10
4234.160638043928
 20
4204.394348081176
 30
0.0
 11
4239.584375635996
 21
4204.394348081176
 31
0.0
  0
LINE
  5
6EE
330
18
100
AcDbEntity
  8
DESHED
  6
ByBlock
 62
     1
100
AcDbLine
 10
4238.222522739445
 20
4212.649807346742
 30
0.0
 11
4238.660638043929
 21
4212.327950254557
 31
0.0
  0
LINE
  5
6EF
330
18
100
AcDbEntity
  8
DESHED
  6
ByBlock
 62
     1
100
AcDbLine
 10
4235.498753348411
 20
4212.649807346742
 30
0.0
 11
4235.060638043928
 21
4212.327950254557
 31
0.0
  0
LINE
  5
6F0
330
18
100
AcDbEntity
  8
DESHED
  6
ByBlock
 62
     1
100
AcDbLine
 10
4232.960638043929
 20
4204.994348081175
 30
0.0
 11
4233.560638043928
 21
4204.994348081175
 31
0.0
  0
LINE
  5
6F1
330
18
100
AcDbEntity
  8
DESHED
  6
ByBlock
 62
     1
100
AcDbLine
 10
4240.160638043929
 20
4204.994348081175
 30
0.0
 11
4240.760638043927
 21
4204.994348081175
 31
0.0
  0
LINE
  5
6F2
330
18
100
AcDbEntity
  8
DESHED
 62
     1
100
AcDbLine
 10
4240.160638043929
 20
4205.024367335718
 30
0.0
 11
4240.760638043927
 21
4204.994348081175
 31
0.0
  0
LINE
  5
6F3
330
18
100
AcDbEntity
  8
DESHED
  6
ByBlock
 62
     1
100
AcDbLine
 10
4235.800558730484
 20
4213.249807346741
 30
0.0
 11
4240.160638043929
 21
4213.249807346741
 31
0.0
  0
LINE
  5
6F4
330
18
100
AcDbEntity
  8
DESHED
  6
ByBlock
 62
     1
100
AcDbLine
 10
4238.280217428006
 20
4209.992704683631
 30
0.0
 11
4239.560638043928
 21
4209.992704683631
 31
0.0
  0
LINE
  5
6F5
330
18
100
AcDbEntity
  8
DESHED
  6
ByBlock
 62
     1
100
AcDbLine
 10
4238.088348162217
 20
4212.649807346742
 30
0.0
 11
4239.560638043928
 21
4212.649807346742
 31
0.0
  0
LINE
  5
6F6
330
18
100
AcDbEntity
  8
DESHED
  6
ByBlock
 62
     1
100
AcDbLine
 10
4233.560638043928
 20
4213.249807346741
 30
0.0
 11
4235.800558730484
 21
4213.249807346741
 31
0.0
  0
LINE
  5
6F7
330
18
100
AcDbEntity
  8
DESHED
  6
ByBlock
 62
     1
370
     0
100
AcDbLine
 10
4239.560638043928
 20
4212.649807346742
 30
0.0
 11
4239.560638043928
 21
4204.394348081176
 31
0.0
  0
LINE
  5
6F8
330
18
100
AcDbEntity
  8
DESHED
  6
ByBlock
 62
     1
370
     0
100
AcDbLine
 10
4234.160638043928
 20
4204.394348081176
 30
0.0
 11
4234.160638043928
 21
4212.649807346742
 31
0.0
  0
LINE
  5
6F9
330
18
100
AcDbEntity
  8
DIM
100
AcDbLine
 10
4239.260638043927
 20
4199.971876007787
 30
0.0
 11
4239.260638043927
 21
4197.87089055575
 31
0.0
  0
LINE
  5
6FA
330
18
100
AcDbEntity
  8
DIM
100
AcDbLine
 10
4234.46063804393
 20
4200.118943022618
 30
0.0
 11
4234.46063804393
 21
4198.017957570582
 31
0.0
  0
LINE
  5
6FB
330
18
100
AcDbEntity
  8
DESHED
  6
ByBlock
 62
     1
100
AcDbLine
 10
4239.584375635996
 20
4204.394348081176
 30
0.0
 11
4240.760638043927
 21
4204.394348081176
 31
0.0
  0
LINE
  5
6FC
330
18
100
AcDbEntity
  8
DESHED
  6
ByBlock
 62
     1
100
AcDbLine
 10
4232.960638043929
 20
4204.394348081176
 30
0.0
 11
4234.13690045186
 21
4204.394348081176
 31
0.0
  0
LINE
  5
6FD
330
18
100
AcDbEntity
  8
DESHED
  6
ByBlock
 62
     1
370
     0
100
AcDbLine
 10
4232.960638043929
 20
4204.394348081176
 30
0.0
 11
4232.960638043929
 21
4204.994348081175
 31
0.0
  0
LINE
  5
6FE
330
18
100
AcDbEntity
  8
DESHED
  6
ByBlock
 62
     1
370
     0
100
AcDbLine
 10
4240.760638043927
 20
4204.994348081175
 30
0.0
 11
4240.760638043927
 21
4204.394348081176
 31
0.0
  0
LINE
  5
6FF
330
18
100
AcDbEntity
  8
DIM
100
AcDbLine
 10
4235.060638043928
 20
4200.93327987244
 30
0.0
 11
4235.060638043928
 21
4197.142206917773
 31
0.0
  0
LINE
  5
700
330
18
100
AcDbEntity
  8
DIM
100
AcDbLine
 10
4238.660638043929
 20
4200.93327987244
 30
0.0
 11
4238.660638043929
 21
4197.142206917773
 31
0.0
  0
LINE
  5
701
330
18
100
AcDbEntity
  8
DESHED
  6
ByBlock
 62
     1
100
AcDbLine
 10
4234.160638043928
 20
4209.992704683631
 30
0.0
 11
4235.44105865985
 21
4209.992704683631
 31
0.0
  0
LINE
  5
702
330
18
100
AcDbEntity
  8
DESHED
  6
ByBlock
 62
     1
100
AcDbLine
 10
4234.160638043928
 20
4212.649807346742
 30
0.0
 11
4235.620558730485
 21
4212.649807346742
 31
0.0
  0
LINE
  5
703
330
18
100
AcDbEntity
  8
DIM
100
AcDbLine
 10
4264.842506320987
 20
4203.708379914955
 30
0.0
 11
4264.860960638768
 21
4202.508521824113
 31
0.0
  0
LINE
  5
704
330
18
100
AcDbEntity
  8
DIM
100
AcDbLine
 10
4265.573778219287
 20
4204.994348081175
 30
0.0
 11
4266.142897463193
 21
4203.728380472983
 31
0.0
  0
LINE
  5
705
330
18
100
AcDbEntity
  8
DIM
100
AcDbLine
 10
4276.375358087342
 20
4204.994348081175
 30
0.0
 11
4276.633699496357
 21
4203.889733382916
 31
0.0
  0
LINE
  5
706
330
18
100
AcDbEntity
  8
DIM
100
AcDbLine
 10
4280.77750611909
 20
4202.753324930797
 30
0.0
 11
4264.860960638768
 21
4202.508521824113
 31
0.0
  0
LEADER
  5
707
330
18
100
AcDbEntity
  8
DIM
100
AcDbLeader
  3
B
 73
     0
 74
     0
 75
     1
 40
3.0
 41
10.0
 76
     3
 10
4284.277397553997
 20
4201.300382174573
 30
0.0
 10
4292.45692465895
 20
4210.63801696671
 30
0.0
 10
4303.886924658951
 20
4210.63801696671
 30
0.0
340
708
213
0.0
223
-1.5
233
0.0
1001
ACAD
1000
DSTYLE
1002
{
1070
   147
1040
0.3
1070
    77
1070
     0
1002
}
  0
MTEXT
  5
708
102
{ACAD_REACTORS
330
707
102
}
330
18
100
AcDbEntity
  8
DIM
100
AcDbMText
 10
4306.172924658951
 20
4212.13801696671
 30
0.0
 40
3.0
 41
0.6000000000000001
 71
     1
 72
     1
  1
SINK
 73
     1
 44
1.0
1001
ACAD
1000
MTEXTBEGIN
1070
    73
1070
     1
1070
    44
1040
1.0
1070
    74
1070
     0
1000
MTEXTEND
  0
MTEXT
  5
709
102
{ACAD_REACTORS
330
70A
102
}
330
18
100
AcDbEntity
  8
DIM
100
AcDbMText
 10
4208.630679551764
 20
4180.556110048178
 30
0.0
 40
3.0
 41
0.6000000000000001
 71
     9
 72
     1
  1
SCREWS
 73
     1
 44
1.0
1001
ACAD
1000
MTEXTBEGIN
1070
    73
1070
     1
1070
    44
1040
1.0
1070
    74
1070
     0
1000
MTEXTEND
  0
LEADER
  5
70A
330
18
100
AcDbEntity
  8
DIM
100
AcDbLeader
  3
B
 73
     0
 75
     1
 40
3.0
 41
18.0
 76
     3
 10
4234.445650038247
 20
4195.6702426425
 30
0.0
 10
4222.346679551765
 20
4182.056110048178
 30
0.0
 10
4210.916679551764
 20
4182.056110048178
 30
0.0
340
709
213
0.0
223
1.5
233
0.0
1001
ACAD
1000
DSTYLE
1002
{
1070
   147
1040
0.3
1070
    77
1070
     0
1002
}
  0
MTEXT
  5
70B
102
{ACAD_REACTORS
330
70C
102
}
330
18
100
AcDbEntity
  8
DIM
100
AcDbMText
 10
4196.436820117686
 20
4187.877026951342
 30
0.0
 40
3.0
 41
0.6000000000000001
 71
     9
 72
     1
  1
FASTENER
 73
     1
 44
1.0
1001
ACAD
1000
MTEXTBEGIN
1070
    73
1070
     1
1070
    44
1040
1.0
1070
    74
1070
     0
1000
MTEXTEND
  0
LEADER
  5
70C
330
18
100
AcDbEntity
  8
DIM
100
AcDbLeader
  3
B
 73
     0
 75
     1
 40
3.0
 41
23.0
 76
     3
 10
4218.30067021762
 20
4198.513082201409
 30
0.0
 10
4210.152820117687
 20
4189.377026951342
 30
0.0
 10
4198.722820117686
 20
4189.377026951342
 30
0.0
340
70B
213
0.0
223
1.5
233
0.0
1001
ACAD
1000
DSTYLE
1002
{
1070
   147
1040
0.3
1070
    77
1070
     0
1002
}
  0
LINE
  5
70D
330
18
100
AcDbEntity
  8
DIM
 62
     1
370
     0
100
AcDbLine
 10
4245.260638043927
 20
4199.78804223925
 30
0.0
 11
4245.260638043927
 21
4197.687056787212
 31
0.0
  0
LINE
  5
70E
330
18
100
AcDbEntity
  8
DIM
100
AcDbLine
 10
4228.460638043929
 20
4200.302776791156
 30
0.0
 11
4228.460638043929
 21
4198.201791339118
 31
0.0
  0
LINE
  5
70F
330
18
100
AcDbEntity
  8
DIM
 62
     1
370
     0
100
AcDbLine
 10
4271.67019879029
 20
4196.877895274305
 30
0.0
 11
4273.876624863986
 21
4201.751682898325
 31
0.0
  0
LINE
  5
710
330
18
100
AcDbEntity
  8
DIM
 62
     1
370
     0
100
AcDbLine
 10
4239.260638043927
 20
4197.87089055575
 30
0.0
 11
4271.67019879029
 21
4196.877895274305
 31
0.0
  0
LINE
  5
711
330
18
100
AcDbEntity
  8
DIM
 62
     1
370
     0
100
AcDbLine
 10
4270.334692709499
 20
4199.019799245632
 30
0.0
 11
4239.260638043927
 21
4199.971876007787
 31
0.0
  0
LINE
  5
712
330
18
100
AcDbEntity
  8
DIM
 62
     1
370
     0
100
AcDbLine
 10
4271.96353670955
 20
4202.617762405855
 30
0.0
 11
4270.334692709499
 21
4199.019799245632
 31
0.0
  0
LINE
  5
713
330
18
100
AcDbEntity
  8
DIM
 62
     1
370
     0
100
AcDbLine
 10
4273.876624863986
 20
4201.751682898325
 30
0.0
 11
4271.96353670955
 21
4202.617762405855
 31
0.0
  0
ARC
  5
714
330
18
100
AcDbEntity
  8
DIM
 62
     1
370
     0
100
AcDbCircle
 10
4280.814414754649
 20
4200.353608749115
 30
0.0
 40
3.59999999999999
100
AcDbArc
 50
1.83944125196927
 51
90.8811635037197
  0
LINE
  5
715
330
18
100
AcDbEntity
  8
DIM
 62
     1
370
     0
100
AcDbLine
 10
4285.349233202061
 20
4170.904277761477
 30
0.0
 11
4284.412559678326
 21
4200.469164398932
 31
0.0
  0
LINE
  5
716
330
18
100
AcDbEntity
  8
DIM
 62
     1
370
     0
100
AcDbLine
 10
4284.175434734637
 20
4170.468120805645
 30
0.0
 11
4285.349233202061
 21
4170.904277761477
 31
0.0
  0
LINE
  5
717
330
18
100
AcDbEntity
  8
DIM
 62
     1
370
     0
100
AcDbLine
 10
4283.2131780371
 20
4200.430645848993
 30
0.0
 11
4284.175434734637
 21
4170.468120805645
 31
0.0
  0
ARC
  5
718
330
18
100
AcDbEntity
  8
DIM
 62
     1
370
     0
100
AcDbCircle
 10
4280.814414754649
 20
4200.353608749115
 30
0.0
 40
2.399999999999972
100
AcDbArc
 50
1.83944125196927
 51
90.8811635037197
  0
LINE
  5
719
330
18
100
AcDbEntity
  8
DIM
 62
     1
370
     0
100
AcDbLine
 10
4264.860960638768
 20
4202.508521824113
 30
0.0
 11
4280.77750611909
 21
4202.753324930797
 31
0.0
  0
LINE
  5
71A
330
18
100
AcDbEntity
  8
DIM
 62
     1
370
     0
100
AcDbLine
 10
4280.759051801315
 20
4203.953183021638
 30
0.0
 11
4264.842506320987
 21
4203.708379914955
 31
0.0
  0
LINE
  5
71B
330
18
100
AcDbEntity
  8
DESHED
  6
ByBlock
 62
     1
370
     0
100
AcDbLine
 10
4233.560638043928
 20
4204.994348081175
 30
0.0
 11
4233.560638043928
 21
4213.249807346741
 31
0.0
  0
LINE
  5
71C
102
{ACAD_REACTORS
330
6D6
102
}
330
18
100
AcDbEntity
  8
DIM
 62
     1
370
     0
100
AcDbLine
 10
4190.964310903954
 20
4204.994348081175
 30
0.0
 11
4233.560638043928
 21
4204.994348081175
 31
0.0
  0
LINE
  5
71D
102
{ACAD_REACTORS
330
6D6
102
}
330
18
100
AcDbEntity
  8
DIM
 62
     1
370
     0
100
AcDbLine
 10
4272.438014315333
 20
4224.978176093782
 30
0.0
 11
4185.590450392783
 21
4224.978176093782
 31
0.0
  0
ARC
  5
71E
102
{ACAD_REACTORS
330
6D6
102
}
330
18
100
AcDbEntity
  8
DIM
 62
     1
370
     0
100
AcDbCircle
 10
4272.438014315333
 20
4221.978176093782
 30
0.0
 40
3.0
100
AcDbArc
 50
0.0
 51
90.0
  0
LINE
  5
71F
102
{ACAD_REACTORS
330
6D6
102
}
330
18
100
AcDbEntity
  8
DIM
 62
     1
370
     0
100
AcDbLine
 10
4275.438014315333
 20
4204.994348081175
 30
0.0
 11
4275.438014315333
 21
4221.978176093782
 31
0.0
  0
LINE
  5
720
102
{ACAD_REACTORS
330
6D6
102
}
330
18
100
AcDbEntity
  8
DIM
 62
     1
370
     0
100
AcDbLine
 10
4240.160638043929
 20
4204.994348081175
 30
0.0
 11
4275.438014315333
 21
4204.994348081175
 31
0.0
  0
LINE
  5
721
330
18
100
AcDbEntity
  8
DESHED
  6
ByBlock
 62
     1
370
     0
100
AcDbLine
 10
4240.160638043929
 20
4213.249807346741
 30
0.0
 11
4240.160638043929
 21
4204.994348081175
 31
0.0
  0
SPLINE
  5
722
102
{ACAD_REACTORS
330
6D6
102
}
330
18
100
AcDbEntity
  8
DIM
100
AcDbSpline
210
0.0
220
0.0
230
1.0
 70
     8
 71
     3
 72
    10
 73
     6
 74
     0
 42
0.0000000001
 43
0.0000000001
 40
168.1890314628042
 40
168.1890314628042
 40
168.1890314628042
 40
168.1890314628042
 40
240.3970488653276
 40
404.4385438063731
 40
531.2097876496541
 40
531.2097876496541
 40
531.2097876496541
 40
531.2097876496541
 10
4185.590450392795
 20
4224.978176093782
 30
0.0
 10
4186.550234123274
 20
4224.001406326486
 30
0.0
 10
4188.908870577512
 20
4220.423760129644
 30
0.0
 10
4186.916877091453
 20
4212.182367694096
 30
0.0
 10
4189.459752208724
 20
4207.076768268304
 30
0.0
 10
4190.964310903965
 20
4204.994348081175
 30
0.0
  0
MTEXT
  5
723
102
{ACAD_REACTORS
330
724
102
}
330
18
100
AcDbEntity
  8
DIM
100
AcDbMText
 10
4187.674839329679
 20
4237.107560017839
 30
0.0
 40
3.0
 41
0.0
 71
     9
 72
     1
  1
COUNTERTOP
 73
     1
 44
1.0
1001
ACAD
1000
MTEXTBEGIN
1070
    73
1070
     1
1070
    44
1040
1.0
1070
    74
1070
     0
1000
MTEXTEND
  0
LEADER
  5
724
330
18
100
AcDbEntity
  8
DIM
100
AcDbLeader
  3
B
 73
     0
 75
     1
 40
50.0
 41
483.3333333333334
 76
     3
 10
4207.257157152673
 20
4224.978176093782
 30
0.0
 10
4199.284839329672
 20
4237.557560017838
 30
0.0
 10
4187.854839329673
 20
4237.557560017838
 30
0.0
213
0.0
223
0.4500000000000001
233
0.0
1001
ACAD
1000
DSTYLE
1002
{
1070
   147
1040
0.3
1070
    77
1070
     0
1002
}
  0
LINE
  5
725
330
18
100
AcDbEntity
  8
DESHED
  6
ByBlock
 62
     1
100
AcDbLine
 10
4235.060638043928
 20
4212.327950254557
 30
0.0
 11
4235.490474533576
 21
4211.989499797183
 31
0.0
  0
LINE
  5
726
330
18
100
AcDbEntity
  8
DESHED
  6
ByBlock
 62
     1
100
AcDbLine
 10
4236.860638043929
 20
4212.189696237691
 30
0.0
 11
4235.060638043928
 21
4211.651049921885
 31
0.0
  0
LINE
  5
727
330
18
100
AcDbEntity
  8
DESHED
  6
ByBlock
 62
     1
100
AcDbLine
 10
4235.060638043928
 20
4211.651049921885
 30
0.0
 11
4235.509294349706
 21
4211.331402332373
 31
0.0
  0
LINE
  5
728
330
18
100
AcDbEntity
  8
DESHED
  6
ByBlock
 62
     1
100
AcDbLine
 10
4235.509294349706
 20
4211.331402332373
 30
0.0
 11
4235.060638043928
 21
4211.049360478587
 31
0.0
  0
LINE
  5
729
330
18
100
AcDbEntity
  8
DESHED
  6
ByBlock
 62
     1
100
AcDbLine
 10
4235.060638043928
 20
4211.049360478587
 30
0.0
 11
4235.546935078123
 21
4210.635698549761
 31
0.0
  0
LINE
  5
72A
330
18
100
AcDbEntity
  8
DESHED
  6
ByBlock
 62
     1
100
AcDbLine
 10
4235.546935078123
 20
4210.635698549761
 30
0.0
 11
4235.060638043928
 21
4210.391262431699
 31
0.0
  0
LINE
  5
72B
330
18
100
AcDbEntity
  8
DESHED
  6
ByBlock
 62
     1
100
AcDbLine
 10
4235.060638043928
 20
4210.391262431699
 30
0.0
 11
4235.565754894255
 21
4210.071614842187
 31
0.0
  0
LINE
  5
72C
330
18
100
AcDbEntity
  8
DESHED
  6
ByBlock
 62
     1
100
AcDbLine
 10
4235.565754894255
 20
4210.071614842187
 30
0.0
 11
4235.060638043928
 21
4209.751967252675
 31
0.0
  0
LINE
  5
72D
330
18
100
AcDbEntity
  8
DESHED
  6
ByBlock
 62
     1
100
AcDbLine
 10
4235.060638043928
 20
4209.751967252675
 30
0.0
 11
4235.584574710389
 21
4209.357108773789
 31
0.0
  0
LINE
  5
72E
330
18
100
AcDbEntity
  8
DESHED
  6
ByBlock
 62
     1
100
AcDbLine
 10
4235.584574710389
 20
4209.357108773789
 30
0.0
 11
4235.060638043928
 21
4209.018658316415
 31
0.0
  0
LINE
  5
72F
330
18
100
AcDbEntity
  8
DESHED
  6
ByBlock
 62
     1
100
AcDbLine
 10
4235.060638043928
 20
4209.018658316415
 30
0.0
 11
4235.565754894255
 21
4208.586194101804
 31
0.0
  0
LINE
  5
730
330
18
100
AcDbEntity
  8
DESHED
  6
ByBlock
 62
     1
100
AcDbLine
 10
4235.565754894255
 20
4208.586194101804
 30
0.0
 11
4235.060638043928
 21
4208.285349380155
 31
0.0
  0
LINE
  5
731
330
18
100
AcDbEntity
  8
DESHED
  6
ByBlock
 62
     1
100
AcDbLine
 10
4235.060638043928
 20
4208.285349380155
 30
0.0
 11
4235.546935078123
 21
4207.77767427617
 31
0.0
  0
LINE
  5
732
330
18
100
AcDbEntity
  8
DESHED
  6
ByBlock
 62
     1
100
AcDbLine
 10
4235.546935078123
 20
4207.77767427617
 30
0.0
 11
4235.060638043928
 21
4207.40161808307
 31
0.0
  0
LINE
  5
733
330
18
100
AcDbEntity
  8
DESHED
  6
ByBlock
 62
     1
100
AcDbLine
 10
4235.060638043928
 20
4207.40161808307
 30
0.0
 11
4235.555795266473
 21
4206.761527785404
 31
0.0
  0
LINE
  5
734
330
18
100
AcDbEntity
  8
DESHED
  6
ByBlock
 62
     1
100
AcDbLine
 10
4235.555795266473
 20
4206.761527785404
 30
0.0
 11
4235.060638043928
 21
4206.328653205754
 31
0.0
  0
LINE
  5
735
330
18
100
AcDbEntity
  8
DESHED
  6
ByBlock
 62
     1
100
AcDbLine
 10
4235.060638043928
 20
4206.328653205754
 30
0.0
 11
4235.632628327548
 21
4205.674364103378
 31
0.0
  0
LINE
  5
736
330
18
100
AcDbEntity
  8
DESHED
  6
ByBlock
 62
     1
100
AcDbLine
 10
4235.632628327548
 20
4205.674364103378
 30
0.0
 11
4235.060638043928
 21
4205.318612131853
 31
0.0
  0
LINE
  5
737
330
18
100
AcDbEntity
  8
DESHED
  6
ByBlock
 62
     1
100
AcDbLine
 10
4238.088647760306
 20
4204.725515787524
 30
0.0
 11
4238.660638043929
 21
4204.21237625419
 31
0.0
  0
LINE
  5
738
330
18
100
AcDbEntity
  8
DESHED
  6
ByBlock
 62
     1
100
AcDbLine
 10
4238.660638043929
 20
4205.318612131853
 30
0.0
 11
4238.088647760306
 21
4204.725515787524
 31
0.0
  0
LINE
  5
739
330
18
100
AcDbEntity
  8
DESHED
  6
ByBlock
 62
     1
100
AcDbLine
 10
4238.088647760306
 20
4205.674364103378
 30
0.0
 11
4238.660638043929
 21
4205.318612131853
 31
0.0
  0
LINE
  5
73A
330
18
100
AcDbEntity
  8
DESHED
  6
ByBlock
 62
     1
100
AcDbLine
 10
4238.660638043929
 20
4206.328653205754
 30
0.0
 11
4238.088647760306
 21
4205.674364103378
 31
0.0
  0
LINE
  5
73B
330
18
100
AcDbEntity
  8
DESHED
  6
ByBlock
 62
     1
100
AcDbLine
 10
4238.165480821382
 20
4206.761527785404
 30
0.0
 11
4238.660638043929
 21
4206.328653205754
 31
0.0
  0
LINE
  5
73C
330
18
100
AcDbEntity
  8
DESHED
  6
ByBlock
 62
     1
100
AcDbLine
 10
4238.660638043929
 20
4207.40161808307
 30
0.0
 11
4238.165480821382
 21
4206.761527785404
 31
0.0
  0
LINE
  5
73D
330
18
100
AcDbEntity
  8
DESHED
  6
ByBlock
 62
     1
100
AcDbLine
 10
4238.174341009732
 20
4207.77767427617
 30
0.0
 11
4238.660638043929
 21
4207.40161808307
 31
0.0
  0
LINE
  5
73E
330
18
100
AcDbEntity
  8
DESHED
  6
ByBlock
 62
     1
100
AcDbLine
 10
4238.660638043929
 20
4208.285349380155
 30
0.0
 11
4238.174341009732
 21
4207.77767427617
 31
0.0
  0
LINE
  5
73F
330
18
100
AcDbEntity
  8
DESHED
  6
ByBlock
 62
     1
100
AcDbLine
 10
4238.155521193601
 20
4208.586194101804
 30
0.0
 11
4238.660638043929
 21
4208.285349380155
 31
0.0
  0
LINE
  5
740
330
18
100
AcDbEntity
  8
DESHED
  6
ByBlock
 62
     1
100
AcDbLine
 10
4238.660638043929
 20
4209.018658316415
 30
0.0
 11
4238.155521193601
 21
4208.586194101804
 31
0.0
  0
LINE
  5
741
330
18
100
AcDbEntity
  8
DESHED
  6
ByBlock
 62
     1
100
AcDbLine
 10
4238.136701377468
 20
4209.357108773789
 30
0.0
 11
4238.660638043929
 21
4209.018658316415
 31
0.0
  0
LINE
  5
742
330
18
100
AcDbEntity
  8
DESHED
  6
ByBlock
 62
     1
100
AcDbLine
 10
4238.660638043929
 20
4209.751967252675
 30
0.0
 11
4238.136701377468
 21
4209.357108773789
 31
0.0
  0
LINE
  5
743
330
18
100
AcDbEntity
  8
DESHED
  6
ByBlock
 62
     1
100
AcDbLine
 10
4238.155521193601
 20
4210.071614842187
 30
0.0
 11
4238.660638043929
 21
4209.751967252675
 31
0.0
  0
LINE
  5
744
330
18
100
AcDbEntity
  8
DESHED
  6
ByBlock
 62
     1
100
AcDbLine
 10
4238.660638043929
 20
4210.391262431699
 30
0.0
 11
4238.155521193601
 21
4210.071614842187
 31
0.0
  0
LINE
  5
745
330
18
100
AcDbEntity
  8
DESHED
  6
ByBlock
 62
     1
100
AcDbLine
 10
4238.174341009732
 20
4210.635698549761
 30
0.0
 11
4238.660638043929
 21
4210.391262431699
 31
0.0
  0
LINE
  5
746
330
18
100
AcDbEntity
  8
DESHED
  6
ByBlock
 62
     1
100
AcDbLine
 10
4238.660638043929
 20
4211.049360478587
 30
0.0
 11
4238.174341009732
 21
4210.635698549761
 31
0.0
  0
LINE
  5
747
330
18
100
AcDbEntity
  8
DESHED
  6
ByBlock
 62
     1
100
AcDbLine
 10
4238.211981738147
 20
4211.331402332373
 30
0.0
 11
4238.660638043929
 21
4211.049360478587
 31
0.0
  0
LINE
  5
748
330
18
100
AcDbEntity
  8
DESHED
  6
ByBlock
 62
     1
100
AcDbLine
 10
4238.660638043929
 20
4211.651049921885
 30
0.0
 11
4238.211981738147
 21
4211.331402332373
 31
0.0
  0
LINE
  5
749
330
18
100
AcDbEntity
  8
DESHED
  6
ByBlock
 62
     1
100
AcDbLine
 10
4236.860638043929
 20
4212.189696237691
 30
0.0
 11
4238.660638043929
 21
4211.651049921885
 31
0.0
  0
LINE
  5
74A
330
18
100
AcDbEntity
  8
DESHED
  6
ByBlock
 62
     1
100
AcDbLine
 10
4238.660638043929
 20
4212.327950254557
 30
0.0
 11
4238.230801554281
 21
4211.989499797183
 31
0.0
  0
LINE
  5
74B
330
18
100
AcDbEntity
  8
DIM
100
AcDbLine
 10
4235.060638043928
 20
4197.742206917774
 30
0.0
 11
4230.260638043927
 21
4197.742206917774
 31
0.0
  0
LINE
  5
74C
330
18
100
AcDbEntity
  8
DIM
100
AcDbLine
 10
4233.560638043928
 20
4204.994348081175
 30
0.0
 11
4190.964310903954
 21
4204.994348081175
 31
0.0
  0
LINE
  5
74D
330
18
100
AcDbEntity
  8
DIM
100
AcDbLine
 10
4235.060638043928
 20
4200.100559645765
 30
0.0
 11
4205.742734692933
 21
4200.99882975554
 31
0.0
  0
LINE
  5
74E
330
18
100
AcDbEntity
  8
DIM
100
AcDbLine
 10
4235.060638043928
 20
4197.999574193727
 30
0.0
 11
4204.648241979049
 21
4198.931378423542
 31
0.0
  0
LINE
  5
74F
330
18
100
AcDbEntity
  8
DIM
100
AcDbLine
 10
4238.96063804393
 20
4197.742206917774
 30
0.0
 11
4238.96063804393
 21
4197.142206917773
 31
0.0
  0
LINE
  5
750
330
18
100
AcDbEntity
  8
DIM
100
AcDbLine
 10
4234.760638043927
 20
4197.742206917774
 30
0.0
 11
4234.760638043927
 21
4197.142206917773
 31
0.0
  0
ARC
  5
751
330
18
100
AcDbEntity
  8
DIM
100
AcDbCircle
 10
4236.860638043929
 20
4198.827422445111
 30
0.0
 40
3.974915266213253
100
AcDbArc
 50
279.9111678270143
 51
334.9149811222537
  0
LINE
  5
752
330
18
100
AcDbEntity
  8
DIM
100
AcDbLine
 10
4236.860638043929
 20
4195.573633977878
 30
0.0
 11
4237.544804871478
 21
4194.911829625925
 31
0.0
  0
LINE
  5
753
330
18
100
AcDbEntity
  8
DIM
100
AcDbLine
 10
4236.860638043929
 20
4195.573633977878
 30
0.0
 11
4236.17647121638
 21
4194.911829625925
 31
0.0
  0
LINE
  5
754
330
18
100
AcDbEntity
  8
DIM
100
AcDbLine
 10
4243.46063804393
 20
4197.142206917773
 30
0.0
 11
4230.260638043927
 21
4197.142206917773
 31
0.0
  0
LINE
  5
755
330
18
100
AcDbEntity
  8
DIM
100
AcDbLine
 10
4243.46063804393
 20
4197.742206917774
 30
0.0
 11
4238.660638043929
 21
4197.742206917774
 31
0.0
  0
ARC
  5
756
330
18
100
AcDbEntity
  8
DIM
100
AcDbCircle
 10
4236.860638043929
 20
4198.827422445111
 30
0.0
 40
3.974915266213253
100
AcDbArc
 50
205.0850188777463
 51
260.0888321729858
  0
LINE
  5
757
330
18
100
AcDbEntity
  8
DIM
100
AcDbLine
 10
4230.260638043927
 20
4197.742206917774
 30
0.0
 11
4230.260638043927
 21
4197.142206917773
 31
0.0
  0
LINE
  5
758
330
18
100
AcDbEntity
  8
DIM
100
AcDbLine
 10
4243.46063804393
 20
4197.742206917774
 30
0.0
 11
4243.46063804393
 21
4197.142206917773
 31
0.0
  0
LINE
  5
759
330
18
100
AcDbEntity
  8
DIM
100
AcDbLine
 10
4201.712302198695
 20
4203.985463643025
 30
0.0
 11
4203.554081824618
 21
4204.994348081175
 31
0.0
  0
LINE
  5
75A
330
18
100
AcDbEntity
  8
DIM
100
AcDbLine
 10
4204.47795564898
 20
4198.93659581984
 30
0.0
 11
4201.712302198695
 21
4203.985463643025
 31
0.0
  0
LINE
  5
75B
330
18
100
AcDbEntity
  8
DIM
100
AcDbLine
 10
4271.96353670955
 20
4202.617762405855
 30
0.0
 11
4273.876624863986
 21
4201.751682898325
 31
0.0
  0
LINE
  5
75C
330
18
100
AcDbEntity
  8
DIM
100
AcDbLine
 10
4273.876624863986
 20
4201.751682898325
 30
0.0
 11
4271.67019879029
 21
4196.877895274305
 31
0.0
  0
LINE
  5
75D
330
18
100
AcDbEntity
  8
DIM
100
AcDbLine
 10
4271.67019879029
 20
4196.877895274305
 30
0.0
 11
4238.660638043929
 21
4197.889273932605
 31
0.0
  0
LINE
  5
75E
330
18
100
AcDbEntity
  8
DIM
100
AcDbLine
 10
4205.742734692933
 20
4200.99882975554
 30
0.0
 11
4203.554081824618
 21
4204.994348081175
 31
0.0
  0
LINE
  5
75F
330
18
100
AcDbEntity
  8
DIM
100
AcDbLine
 10
4270.334692709499
 20
4199.019799245632
 30
0.0
 11
4238.660638043929
 21
4199.990259384642
 31
0.0
  0
LINE
  5
760
330
18
100
AcDbEntity
  8
DIM
100
AcDbLine
 10
4271.96353670955
 20
4202.617762405855
 30
0.0
 11
4270.334692709499
 21
4199.019799245632
 31
0.0
  0
LINE
  5
761
330
18
100
AcDbEntity
  8
DIM
100
AcDbLine
 10
4285.306494804742
 20
4172.634020532515
 30
0.0
 11
4284.175434734637
 21
4170.468120805645
 31
0.0
  0
LINE
  5
762
330
18
100
AcDbEntity
  8
DIM
100
AcDbLine
 10
4283.2131780371
 20
4200.430645848993
 30
0.0
 11
4284.175434734637
 21
4170.468120805645
 31
0.0
  0
ARC
  5
763
330
18
100
AcDbEntity
  8
DIM
100
AcDbCircle
 10
4280.814414754649
 20
4200.353608749115
 30
0.0
 40
2.4
100
AcDbArc
 50
1.83944125196927
 51
90.8811635037197
  0
ARC
  5
764
330
18
100
AcDbEntity
  8
DIM
100
AcDbCircle
 10
4280.814414754649
 20
4200.353608749115
 30
0.0
 40
3.6
100
AcDbArc
 50
1.83944125196927
 51
90.8811635037197
  0
LINE
  5
765
330
18
100
AcDbEntity
  8
DIM
100
AcDbLine
 10
4284.412559678326
 20
4200.469164398932
 30
0.0
 11
4285.349233202061
 21
4170.904277761477
 31
0.0
  0
LINE
  5
766
330
18
100
AcDbEntity
  8
DIM
100
AcDbLine
 10
4280.759051801315
 20
4203.953183021638
 30
0.0
 11
4264.842506320987
 21
4203.708379914955
 31
0.0
  0
LINE
  5
767
330
18
100
AcDbEntity
  8
DIM
100
AcDbLine
 10
4261.797264917856
 20
4204.994348081175
 30
0.0
 11
4276.375358087342
 21
4204.994348081175
 31
0.0
  0
LINE
  5
768
330
18
100
AcDbEntity
  8
DIM
100
AcDbLine
 10
4275.438014315333
 20
4204.994348081175
 30
0.0
 11
4240.160638043929
 21
4204.994348081175
 31
0.0
  0
LINE
  5
769
330
18
100
AcDbEntity
  8
DIM
100
AcDbLine
 10
4275.438014315333
 20
4221.978176093782
 30
0.0
 11
4275.438014315333
 21
4204.994348081175
 31
0.0
  0
ARC
  5
76A
330
18
100
AcDbEntity
  8
DIM
100
AcDbCircle
 10
4272.438014315333
 20
4221.978176093782
 30
0.0
 40
3.0
100
AcDbArc
 50
0.0
 51
90.0
  0
LINE
  5
76B
330
18
100
AcDbEntity
  8
DIM
100
AcDbLine
 10
4185.590450392783
 20
4224.978176093782
 30
0.0
 11
4272.438014315333
 21
4224.978176093782
 31
0.0
  0
LINE
  5
76C
102
{ACAD_REACTORS
330
6D6
102
}
330
18
100
AcDbEntity
  8
DIM
  6
ByBlock
100
AcDbLine
 10
4233.560638043928
 20
4213.249807346741
 30
0.0
 11
4233.560638043928
 21
4204.994348081175
 31
0.0
  0
LINE
  5
76D
330
18
100
AcDbEntity
  8
DIM
100
AcDbLine
 10
4236.860638043929
 20
4216.994348081175
 30
0.0
 11
4236.860638043929
 21
4194.186149036759
 31
0.0
  0
SPLINE
  5
76E
330
18
100
AcDbEntity
  8
DIM
100
AcDbSpline
210
0.0
220
0.0
230
1.0
 70
     8
 71
     3
 72
    10
 73
     6
 74
     0
 42
0.0000000001
 43
0.0000000001
 40
168.1890314628042
 40
168.1890314628042
 40
168.1890314628042
 40
168.1890314628042
 40
240.3970488653276
 40
404.4385438063731
 40
531.2097876496541
 40
531.2097876496541
 40
531.2097876496541
 40
531.2097876496541
 10
4185.590450392795
 20
4224.978176093782
 30
0.0
 10
4186.550234123274
 20
4224.001406326486
 30
0.0
 10
4188.908870577512
 20
4220.423760129644
 30
0.0
 10
4186.916877091453
 20
4212.182367694096
 30
0.0
 10
4189.459752208724
 20
4207.076768268304
 30
0.0
 10
4190.964310903965
 20
4204.994348081175
 30
0.0
  0
MTEXT
  5
76F
330
18
100
AcDbEntity
  8
0
100
AcDbMText
 10
4124.109696978926
 20
4046.262801783424
 30
0.0
 40
6.0
 41
315.6503843244575
 71
     1
 72
     5
  1
{\fArial|b1|i0|c0|p34;Use line for flush cut:\fArial|b0|i0|c0|p34;\PSink wall is flush to the edge of countertop opening.}
 73
     1
 44
1.0
1001
ACAD
1000
MTEXTBEGIN
1070
    73
1070
     1
1070
    44
1040
1.0
1070
    74
1070
     0
1000
MTEXTEND
  0
ENDSEC
  0
SECTION
  2
OBJECTS
  0
DICTIONARY
  5
C
330
0
100
AcDbDictionary
281
     1
  3
ACAD_COLOR
350
178
  3
ACAD_GROUP
350
D
  3
ACAD_LAYOUT
350
179
  3
ACAD_MATERIAL
350
177
  3
ACAD_MLINESTYLE
350
1B
  3
ACAD_PLOTSETTINGS
350
17A
  3
ACAD_PLOTSTYLENAME
350
175
  3
ACDBHEADERROUNDTRIPXREC
350
8D5
  3
AcDbVariableDictionary
350
19E
  3
ASE_INDEX_DICTIONARY
350
2BA
  0
DICTIONARY
  5
178
102
{ACAD_REACTORS
330
C
102
}
330
C
100
AcDbDictionary
281
     1
  0
DICTIONARY
  5
D
102
{ACAD_REACTORS
330
C
102
}
330
C
100
AcDbDictionary
281
     1
  0
DICTIONARY
  5
179
102
{ACAD_REACTORS
330
C
102
}
330
C
100
AcDbDictionary
281
     1
  3
Model
350
17B
  3
布局1
350
17C
  0
DICTIONARY
  5
177
102
{ACAD_REACTORS
330
C
102
}
330
C
100
AcDbDictionary
281
     1
  0
DICTIONARY
  5
1B
102
{ACAD_REACTORS
330
C
102
}
330
C
100
AcDbDictionary
281
     1
  3
STANDARD
350
1C
  0
DICTIONARY
  5
17A
102
{ACAD_REACTORS
330
C
102
}
330
C
100
AcDbDictionary
281
     1
  0
ACDBDICTIONARYWDFLT
  5
175
102
{ACAD_REACTORS
330
C
102
}
330
C
100
AcDbDictionary
281
     1
  3
Normal
350
176
100
AcDbDictionaryWithDefault
340
176
  0
DICTIONARY
  5
8D5
102
{ACAD_REACTORS
330
C
102
}
330
C
100
AcDbDictionary
281
     1
  3
COLORDICT
350
8D7
  3
MATERIALDICT
350
8D6
  0
DICTIONARY
  5
19E
102
{ACAD_REACTORS
330
C
102
}
330
C
100
AcDbDictionary
281
     1
  3
DIMASSOC
350
19F
  3
PROJECTNAME
350
1A0
  0
DICTIONARY
  5
2BA
102
{ACAD_REACTORS
330
C
102
}
330
C
100
AcDbDictionary
281
     1
  3
ASEBlockHierarchyIndexRecord
350
2BC
1001
DCO15
1040
1560505907.343
  0
LAYOUT
  5
17B
102
{ACAD_XDICTIONARY
360
8D9
102
}
102
{ACAD_REACTORS
330
179
102
}
330
179
100
AcDbPlotSettings
  1

  2
C:\Documents and Settings\yingao\Application Data\Autodesk\AutoCAD 2004\R16.0\chs\plotters\PublishToWeb PNG.pc3
  4

  6

 40
0.0
 41
0.0
 42
0.0
 43
0.0
 44
0.0
 45
0.0
 46
0.0
 47
0.0
 48
0.0
 49
0.0
140
0.0
141
0.0
142
1.0
143
1.0
 70
  1712
 72
     0
 73
     0
 74
     0
  7

 75
     0
147
1.0
148
0.0
149
0.0
100
AcDbLayout
  1
Model
 70
     1
 71
     0
 10
0.0
 20
0.0
 11
12.0
 21
9.0
 12
0.0
 22
0.0
 32
0.0
 14
0.0
 24
0.0
 34
0.0
 15
0.0
 25
0.0
 35
0.0
146
0.0
 13
0.0
 23
0.0
 33
0.0
 16
1.0
 26
0.0
 36
0.0
 17
0.0
 27
1.0
 37
0.0
 76
     0
330
18
  0
LAYOUT
  5
17C
102
{ACAD_XDICTIONARY
360
8DB
102
}
102
{ACAD_REACTORS
330
179
102
}
330
179
100
AcDbPlotSettings
  1

  2
C:\Documents and Settings\yingao\Application Data\Autodesk\AutoCAD 2004\R16.0\chs\plotters\PublishToWeb PNG.pc3
  4

  6

 40
0.0
 41
0.0
 42
0.0
 43
0.0
 44
0.0
 45
0.0
 46
0.0
 47
0.0
 48
0.0
 49
0.0
140
0.0
141
0.0
142
1.0
143
1.0
 70
   688
 72
     0
 73
     0
 74
     5
  7

 75
    16
147
1.0
148
0.0
149
0.0
100
AcDbLayout
  1
布局1
 70
     1
 71
     1
 10
0.0
 20
0.0
 11
420.0
 21
297.0
 12
0.0
 22
0.0
 32
0.0
 14
1.000000000000000E+20
 24
1.000000000000000E+20
 34
1.000000000000000E+20
 15
-1.000000000000000E+20
 25
-1.000000000000000E+20
 35
-1.000000000000000E+20
146
0.0
 13
0.0
 23
0.0
 33
0.0
 16
1.0
 26
0.0
 36
0.0
 17
0.0
 27
1.0
 37
0.0
 76
     0
330
15
  0
MLINESTYLE
  5
1C
102
{ACAD_REACTORS
330
1B
102
}
330
1B
100
AcDbMlineStyle
  2
STANDARD
 70
     0
  3

 62
   256
 51
90.0
 52
90.0
 71
     2
 49
0.5
 62
   256
  6
BYLAYER
 49
-0.5
 62
   256
  6
BYLAYER
  0
ACDBPLACEHOLDER
  5
176
102
{ACAD_REACTORS
330
175
102
}
330
175
  0
XRECORD
  5
8D7
102
{ACAD_REACTORS
330
8D5
102
}
330
8D5
100
AcDbXrecord
280
     1
340
178
  0
XRECORD
  5
8D6
102
{ACAD_REACTORS
330
8D5
102
}
330
8D5
100
AcDbXrecord
280
     1
340
177
  0
DICTIONARYVAR
  5
19F
102
{ACAD_REACTORS
330
19E
102
}
330
19E
100
DictionaryVariables
280
     0
  1
1
  0
DICTIONARYVAR
  5
1A0
102
{ACAD_REACTORS
330
19E
102
}
330
19E
100
DictionaryVariables
280
     0
  1

  0
XRECORD
  5
2BC
102
{ACAD_REACTORS
330
2BA
102
}
330
2BA
100
AcDbXrecord
280
     1
  0
DICTIONARY
  5
8D9
330
17B
100
AcDbDictionary
280
     1
281
     1
  3
ACAD_XREC_ROUNDTRIP
360
8DA
  0
DICTIONARY
  5
8DB
330
17C
100
AcDbDictionary
280
     1
281
     1
  3
ACAD_XREC_ROUNDTRIP
360
8DC
  0
XRECORD
  5
8DA
102
{ACAD_REACTORS
330
8D9
102
}
330
8D9
100
AcDbXrecord
280
     1
102
SHADEPLOT
 70
     0
102
SHADEPLOTRESLEVEL
 70
     2
102
SHADEPLOTCUSTOMDPI
 70
   300
  0
XRECORD
  5
8DC
102
{ACAD_REACTORS
330
8DB
102
}
330
8DB
100
AcDbXrecord
280
     1
102
SHADEPLOT
 70
     0
102
SHADEPLOTRESLEVEL
 70
     2
102
SHADEPLOTCUSTOMDPI
 70
   300
  0
ENDSEC
  0
EOF
